<?xml version="1.0" standalone="no"?>
<!DOCTYPE svg PUBLIC "-//W3C//DTD SVG 1.1//EN" "http://www.w3.org/Graphics/SVG/1.1/DTD/svg11.dtd" >
<svg xmlns="http://www.w3.org/2000/svg">
<metadata></metadata>
<defs>
<font id="algerian_mesaregular" horiz-adv-x="668" >
<font-face units-per-em="1000" ascent="800" descent="-200" />
<missing-glyph horiz-adv-x="244" />
<glyph horiz-adv-x="1000" />
<glyph horiz-adv-x="1000" />
<glyph unicode="&#xd;" horiz-adv-x="1000" />
<glyph unicode=" "  horiz-adv-x="244" />
<glyph unicode="&#x09;" horiz-adv-x="244" />
<glyph unicode="&#xa0;" horiz-adv-x="244" />
<glyph unicode="!" horiz-adv-x="313" d="M299 710q-83 -190 -111 -545h-14q27 361 112 552zM265 727q-37 -80 -62.5 -190.5t-34 -181t-19.5 -190.5h-49q-24 336 -100 458q171 44 265 104zM191 61q0 -29 -18.5 -48t-47.5 -19t-47.5 19t-18.5 48t18.5 48.5t47.5 19.5t47.5 -19.5t18.5 -48.5zM223 50q0 -39 -22 -63 t-64 -24q-20 0 -38 10.5t-23 26.5l1 2q19 -25 58 -25q37 0 56 21t19 54q0 34 -22 52h1q13 -4 23.5 -19.5t10.5 -34.5z" />
<glyph unicode="&#x22;" horiz-adv-x="343" d="M146 729l17 -4q10 -31 10 -66q0 -59 -30.5 -107t-83.5 -62l-15 8q52 14 82.5 59.5t30.5 103.5q0 32 -11 68zM121 732q16 -36 16 -75q0 -57 -32.5 -99t-82.5 -49l-1 7q37 30 37 95q0 45 -21 77q42 13 84 44zM292 739l17 -4q10 -31 10 -66q0 -59 -30.5 -107t-83.5 -62 l-15 8q52 14 82.5 59.5t30.5 103.5q0 32 -11 68zM267 742q16 -36 16 -75q0 -57 -32.5 -99t-82.5 -49l-1 7q37 30 37 95q0 45 -21 77q42 13 84 44z" />
<glyph unicode="#" horiz-adv-x="640" d="M619 492l-32 -161l-13 12l33 160zM576 284l-31 -145l-12 14l30 141zM586 508l-31 -149l-53 44h-58l-26 -125h22l23 104h40l18 -15h-48l-18 -89h21l69 39l-31 -150l-52 45h-59l-30 -144l42 -68h-181l72 68l23 109h-89l-23 -102l28 -46l-11 -11l-33 54l26 120h105l4 20 h-128l-30 -144l42 -68h-181l71 68l24 109h-52l-65 -37l-7 13l69 39h58l4 20h-68l-73 -43l31 149l56 -40h68l19 89h-54l-66 -37l-7 12l69 40h61l4 21h-67l-73 -43l31 149l56 -40h67l28 132l-41 70h181l-72 -70l-28 -132h23l25 121l63 62l9 -12l-59 -58l-24 -113h91l28 132 l-42 70h181l-72 -70l-28 -132h23l25 121l67 66l11 -11l-64 -63l-24 -113h20zM489 177h-54l-23 -102l69 -112h-410l-12 15h396l-59 94l27 120h49zM377 403h-128l-27 -125h23l23 104h104zM369 367h-91l-18 -89h90z" />
<glyph unicode="$" horiz-adv-x="624" d="M571 627q-42 -69 -85 -166l-14 12q37 87 89 170zM558 189q0 -93 -63 -144t-163 -56v-63h-65v28q-27 5 -76 26t-80 21q-26 0 -54 -11l-10 12q31 14 64 14q28 0 77.5 -21.5t78.5 -26.5v24q-18 4 -34.5 9t-38 14t-26.5 11q-30 13 -66 13q-39 0 -73 -17q72 114 105 198 q5 -38 21 -78q19 -47 45.5 -72.5t66.5 -32.5v13q-90 26 -105 151l21 -15q15 -97 84 -125v194q-42 12 -65.5 20t-53.5 24t-47.5 39.5t-25.5 55.5l3 4q12 -28 31 -48.5t48.5 -35t50 -21.5t59.5 -18v26q-47 12 -80 25.5t-66 36t-50 58.5t-17 84q0 85 61.5 131t151.5 48v64h65 v-68q14 -2 23 -4v62l15 -9v-56q3 0 40 -9q61 -18 80 -18q13 0 53 14q-56 -89 -89 -171q-5 18 -14 41q-14 39 -42 67t-66 38v-233l23 -7v209q43 -16 62 -45l-3 -2q-17 15 -44 28v-194q87 -28 137.5 -74t50.5 -128zM594 184q0 -101 -62.5 -158t-161.5 -71v-69h-79l-15 15h79 v66q99 11 162 65t63 152q0 94 -79 156l1 1q38 -16 65 -59t27 -98zM267 435v165q-65 -12 -65 -65q0 -28 18.5 -55.5t46.5 -44.5zM267 420v10q-80 33 -80 105q0 35 22 54.5t58 24.5v25q-43 -5 -73.5 -30t-30.5 -71q0 -49 27 -75t77 -43zM455 145q0 98 -123 137v-247q16 2 23 4 v208q66 -28 92 -77l-3 -2q-24 31 -74 54v-179q85 30 85 102z" />
<glyph unicode="%" horiz-adv-x="777" d="M680 671l-108 -70l-367 -532l65 -69h-233l109 71l365 530l-59 70h228zM701 639l-101 -67l-345 -499l105 -112h-290l-14 15h270l-89 95l352 512l104 68zM304 481q0 -83 -36.5 -141t-115.5 -58q-78 0 -114.5 58t-36.5 141q0 52 13 94t48.5 73t89.5 31t89.5 -30.5t49 -73 t13.5 -94.5zM333 472q0 -40 -8.5 -76t-27 -69.5t-54.5 -53.5t-85 -20t-83.5 25t-48.5 67q40 -77 132 -77q82 0 120.5 60t38.5 144q0 41 -10 85t-29 67q25 -18 40 -62.5t15 -89.5zM237 481q0 172 -85 172q-83 0 -83 -172q0 -174 84 -174t84 174zM209 606q-18 21 -48 21 q-62 0 -62 -146q0 -156 61 -169q-24 0 -41 19t-24 49t-9.5 54t-2.5 47q0 158 76 158q16 0 30.5 -9t19.5 -24zM728 187q0 -83 -36.5 -141t-115.5 -58q-78 0 -114.5 58t-36.5 141q0 52 13 94t48.5 73t89.5 31t89.5 -30.5t49 -73t13.5 -94.5zM661 187q0 172 -85 172 q-83 0 -83 -172q0 -174 84 -174t84 174zM757 178q0 -40 -8.5 -76t-27 -69.5t-54.5 -53.5t-85 -20t-83.5 25t-48.5 67q40 -77 132 -77q82 0 120.5 60t38.5 144q0 41 -10 85t-29 67q25 -18 40 -62.5t15 -89.5zM633 312q-17 21 -48 21q-62 0 -62 -146q0 -156 61 -169 q-24 0 -41 19t-24 49t-9.5 54t-2.5 47q0 158 76 158q16 0 30.5 -9t19.5 -24z" />
<glyph unicode="&#x26;" horiz-adv-x="729" d="M647 80q-12 -9 -33 -9q-36 0 -90 74q6 12 17.5 34t18 34.5t18 29.5t23.5 31l7 -17q-12 -16 -22 -30.5t-15 -23.5t-14 -27.5t-15 -29.5q50 -68 77 -68q5 0 9 1t9 2t9 2zM700 69q0 -8 -6 -17q-40 -59 -119 -59q-74 0 -127 67q-90 -76 -210 -76q-99 0 -158.5 54.5 t-59.5 153.5q0 146 171 222q14 6 20 9l-9.5 19l-10 20t-8 18.5t-8 21t-6 19t-4.5 21.5t-1 21q0 59 41.5 89.5t107.5 30.5q61 0 97 -32.5t36 -92.5q0 -29 -9.5 -52t-31.5 -41.5t-38 -28t-48 -26.5q22 -45 61 -107t70 -100q4 21 5 34q-66 89 -104 163q56 30 86.5 65.5 t30.5 92.5q0 29 -16 56.5t-37 41.5l2 1q26 -9 46 -38t20 -61q0 -58 -29 -96t-81 -68q46 -79 84 -131q1 9 1 28q0 33 -5 73q55 -37 138 -62q-18 -21 -33.5 -46.5t-34 -61t-27.5 -51.5q18 -26 30.5 -41.5t36.5 -33t47 -17.5q20 0 46 16l27 16q17 0 17 -14zM704 44 q-9 -38 -44.5 -64t-84.5 -26q-73 0 -130 52q-84 -61 -197 -61q-53 0 -106 23t-69 59l1 5q20 -32 71 -52t103 -20q110 0 197 66q55 -57 130 -57q87 0 126 76zM385 564q0 78 -70 78q-31 0 -47.5 -17t-16.5 -47q0 -13 2.5 -25.5t8 -26.5t9.5 -22.5t12.5 -24.5t11.5 -22 q13 5 21 11q-40 76 -40 110q0 43 49 43q33 0 47 -26l-1 -2q-22 13 -46 13q-35 0 -35 -28q0 -34 38 -103q57 37 57 89zM409 104q-70 85 -154 232q-90 -49 -90 -147q0 -56 29.5 -103t68.5 -47v-4q-50 1 -81.5 48t-31.5 106q0 54 25.5 97t70.5 63l1 1q-6 11 -11 22 q-52 -24 -81 -70t-29 -104q0 -65 32.5 -117t94.5 -52q94 0 156 75z" />
<glyph unicode="'" horiz-adv-x="212" d="M168 733l19 -8q16 -34 16 -74q0 -62 -41 -104.5t-99 -58.5l-19 7q68 19 105.5 60.5t37.5 101.5q0 38 -19 76zM145 732q15 -38 15 -75q0 -107 -138 -148l-2 7q47 32 47 95q0 45 -27 77q54 14 105 44z" />
<glyph unicode="(" horiz-adv-x="359" d="M305 623q-31 0 -54.5 -13.5t-37 -40t-22 -51.5t-12 -64t-4 -60t-0.5 -56q0 -256 68 -302v-2q-82 38 -82 304q0 32 0.5 51t3 54.5t7.5 58t16 51t25.5 45t38 28t53.5 11.5v-14zM305 -26q-69 0 -122 22t-85 57t-52.5 83.5t-28 97t-7.5 102.5q0 56 7.5 105t28 98t53 83.5 t85 56t121.5 21.5v-38q-34 0 -61.5 -12.5t-45 -31t-30 -48.5t-18.5 -56t-9.5 -63t-4 -58.5t-0.5 -54.5q0 -41 0.5 -66t4 -63.5t9.5 -62.5t18.5 -52t30 -44t44.5 -27t62 -11v-38zM305 -65q-99 0 -165 46.5t-94 133.5l2 4q75 -169 257 -169v-15z" />
<glyph unicode=")" horiz-adv-x="368" d="M168 445h-3q-13 68 -46.5 120t-91.5 57l-7 15q70 -3 106 -60.5t42 -131.5zM305 336q0 -54 -7.5 -102.5t-28 -97t-52.5 -83.5t-85 -57t-122 -22v38q35 0 62 11t44.5 26.5t29.5 44.5t18.5 52t9.5 62.5t3.5 63t0.5 66.5q0 45 -1 71.5t-5.5 71t-15 71t-28.5 55t-48 42 t-70 13.5v38q153 0 224 -100t71 -264zM344 319q0 -51 -7 -98.5t-27 -101t-52.5 -92t-89 -64.5t-129.5 -26l-15 14q70 0 125 23.5t88 60.5t54.5 87t29.5 98t8 99q0 77 -22.5 156.5t-61.5 120.5l5 1q94 -90 94 -278z" />
<glyph unicode="*" horiz-adv-x="424" d="M408 561q0 -22 -12 -37.5t-33 -15.5q-14 0 -27 6v2h9q23 0 36.5 12.5t13.5 32.5q0 32 -26 43l3 1q15 -2 25.5 -14t10.5 -30zM288 679q0 -30 -18.5 -44t-55.5 -22q-2 6 -2 10l1 8h5q26 0 41.5 13.5t15.5 35.5q0 20 -14 32l3 3q9 -4 16.5 -14.5t7.5 -21.5zM348 421 q0 -26 -13 -47.5t-43 -21.5q-9 0 -26 5l-1 4h7q64 0 64 60q0 61 -76 117q3 2 8.5 3.5t6.5 2.5q73 -68 73 -123zM376 564q0 -15 -10 -26t-25 -11t-25.5 10.5t-10.5 25.5q0 6 1 8q-3 1 -8 1q-30 0 -70 -34q88 -62 88 -117q0 -21 -10.5 -35.5t-30.5 -14.5q-16 0 -25.5 10 t-9.5 25q0 26 29 35q-5 24 -66 64l-6 4q-6 -20 -11.5 -33.5t-15.5 -34t-21 -33.5t-27 -22.5t-35 -9.5q-18 0 -29.5 11t-11.5 29q0 14 11 24t25 10q19 0 31 -19q25 13 44 85q-142 17 -142 91q0 16 11 27.5t27 11.5q14 0 24 -11t10 -25q0 -13 -13 -28q15 -19 89 -25 q-8 48 -8 73q0 54 31 79q17 12 33 12q15 0 27 -10.5t12 -25.5q0 -14 -11 -25t-25 -11q-10 0 -23 9q-6 -11 -6 -28q0 -14 4.5 -38t5.5 -28q16 22 46 35.5t58 13.5q26 0 47.5 -12.5t21.5 -36.5zM119 610q0 -19 -10 -34l-12 4q10 13 10 30q0 21 -15 33.5t-39 12.5v4q4 1 10 1 q21 0 38.5 -14.5t17.5 -36.5zM131 500q-7 -24 -18 -41l-10 3q8 18 12 28q-81 16 -94 66l1 4q24 -47 109 -60zM219 471q-41 -126 -132 -126q-31 0 -39 32l2 2q13 -22 37 -22q78 0 121 122z" />
<glyph unicode="+" horiz-adv-x="435" d="M384 167l-98 84h-38v-42l83 -98h-193l-15 15h176l-66 77v63h59l77 -67v189l15 -15v-206zM347 247l-47 41h-89v-93l41 -47h-144l41 47v56h-74l-39 -32l-9 11l43 36h79v22h-87l-49 -41v143l49 -40h87v90l-41 50h144l-41 -50v-90h22v83l36 43l11 -10l-32 -39v-77h52l47 40 v-143z" />
<glyph unicode="," horiz-adv-x="241" d="M158 117l19 -8q16 -34 16 -74q0 -62 -41 -104.5t-99 -58.5l-19 7q68 19 105.5 60.5t37.5 101.5q0 38 -19 76zM135 116q15 -38 15 -75q0 -107 -138 -148l-2 7q47 32 47 95q0 45 -27 77q54 14 105 44z" />
<glyph unicode="-" horiz-adv-x="427" d="M400 204l-15 14v175l15 -10v-179zM361 235l-56 48h-230l-58 -48v163l58 -48h230l56 48v-163zM330 244h-240l-46 -40l-12 12l52 42h228z" />
<glyph unicode="." horiz-adv-x="198" d="M142 61q0 -29 -18.5 -48t-47.5 -19t-47.5 19t-18.5 48t18.5 48.5t47.5 19.5t47.5 -19.5t18.5 -48.5zM174 50q0 -39 -22 -63t-64 -24q-20 0 -38 10.5t-23 26.5l1 2q19 -25 58 -25q37 0 56 21t19 54q0 34 -22 52h1q13 -4 23.5 -19.5t10.5 -34.5z" />
<glyph unicode="/" horiz-adv-x="580" d="M555 671l-93 -70l-248 -533l59 -68h-268l88 68l256 543l-58 60h264zM578 640l-85 -65l-233 -500l99 -114h-325l-14 15h307l-85 96l240 513l87 67z" />
<glyph unicode="0" horiz-adv-x="599" d="M531 336q0 -67 -14 -126t-43.5 -110.5t-83 -82t-124.5 -30.5t-125 30.5t-83.5 82t-43.5 110.5t-14 126t14 126t43 110.5t82.5 82t125.5 30.5t125.5 -30.5t83 -82t43.5 -110.5t14 -126zM570 322q0 -69 -15 -131.5t-47 -119t-92 -90t-141 -33.5q-88 0 -147.5 39.5 t-83.5 111.5l3 1q29 -59 87.5 -98t140.5 -39q75 0 131 31.5t87.5 84.5t46.5 114t15 129q0 62 -19 137.5t-47 109.5l2 1q35 -22 57 -101.5t22 -146.5zM419 337q0 38 -2.5 73t-12 79t-25 75.5t-45 53.5t-68.5 22q-33 0 -59 -14.5t-42.5 -40.5t-27.5 -56t-16 -66.5t-7 -65.5 t-2 -60q0 -305 153 -305q154 0 154 305zM372 560l-1 -3q-40 47 -90 47q-130 0 -130 -267q0 -38 4 -76t15.5 -90t39.5 -87t70 -40v-4q-144 0 -144 297q0 32 2 61.5t10 72t22 73t41.5 52.5t64.5 22q58 0 96 -58z" />
<glyph unicode="1" horiz-adv-x="399" d="M399 -39h-296l-14 15h277l-90 87v602l15 -12v-584zM323 0h-254l76 68v443q-24 -15 -64 -15q-24 0 -45.5 15t-29.5 36l1 3q26 -39 74 -39q40 0 64 18v26l-3 3q-27 -23 -70 -23q-28 0 -50 15.5t-22 43.5q0 33 27 33q11 0 18.5 -7.5t7.5 -20.5q0 -4 -2.5 -8t-2.5 -7 q9 -7 29 -7q60 0 94 94h80v-603z" />
<glyph unicode="2" horiz-adv-x="557" d="M367 556l-2 -3q-15 24 -47 37t-62 13q-40 0 -69 -20t-29 -55q0 -28 13 -50.5t30 -25.5v-4q-25 0 -41.5 23.5t-16.5 56.5q0 43 33 66.5t80 23.5q34 0 64.5 -15.5t46.5 -46.5zM523 491q0 -71 -31 -122.5t-79 -83t-98 -57.5t-97 -62.5t-68 -82.5h198q30 0 45.5 1.5t35 7.5 t33.5 20.5t26 39.5h5v-152h-477q0 63 40.5 127t86.5 101q22 18 74 53t83 59t58 65.5t27 87.5q0 70 -36 109t-100 39q-50 0 -90 -28.5t-40 -84.5q0 -40 19.5 -65t57.5 -25q14 0 24.5 3.5t24.5 12t17 9.5l7 -2q-21 -92 -114 -92q-58 0 -96.5 38t-38.5 102q0 86 59.5 130 t159.5 44q116 0 182 -47.5t66 -144.5q0 -35 -10.5 -65.5t-22.5 -49.5t-39.5 -41.5t-43 -32t-53 -30.5t-50.5 -28q-142 -84 -162 -161h28q18 45 52 74.5t94 65.5q12 7 47 26.5t48.5 28.5t40.5 28t38.5 34.5t27 39t21 51t5.5 60.5q0 42 -18 78.5t-43 53.5l5 1 q28 -11 49.5 -50.5t21.5 -82.5zM300 437q-8 -44 -46 -74.5t-89 -30.5q-43 0 -80 22t-43 56l2 3q32 -66 121 -66q46 0 80.5 28.5t43.5 69.5zM532 -39h-487l-14 15h487v171l14 -9v-177z" />
<glyph unicode="3" horiz-adv-x="539" d="M329 570l-2 -3q-30 35 -98 35q-44 0 -68 -16t-24 -41q0 -37 20 -52v-3q-35 6 -35 55q0 34 28.5 53t78.5 19q72 0 100 -47zM485 510q0 -120 -108 -167q99 -38 99 -163q0 -97 -71 -143t-174 -46q-96 0 -151 44t-80 132q56 12 110 52q-3 -31 -3 -52q0 -63 32.5 -96.5 t88.5 -33.5q64 0 99 38t35 108q0 65 -35 108.5t-113 43.5q-18 0 -52 -6q3 10 17 55q22 -2 34 -2q52 0 93.5 40.5t41.5 101.5q0 55 -35 86t-90 31q-51 0 -88 -22t-37 -69q0 -30 14 -50t40 -20q7 0 36 13q-22 -53 -75 -53q-45 0 -71 26.5t-26 71.5q0 71 63 107.5t141 36.5 q43 0 80.5 -8t71.5 -25t54 -50.5t20 -78.5q0 -128 -118 -157v-5q20 -4 29 -8q114 46 114 160q0 35 -18 68.5t-37 46.5l4 2q22 -9 43.5 -44.5t21.5 -72.5zM214 459q-35 -56 -96 -56q-31 0 -55 15t-34 40l2 3q27 -43 87 -43q61 0 88 58zM343 233l-3 -3q-15 27 -49.5 46.5 t-76.5 19.5q-19 0 -44 -5l-5 14q27 5 49 5q48 0 82.5 -21.5t46.5 -55.5zM510 180q0 -51 -17 -91.5t-43.5 -65t-63 -40.5t-71.5 -22t-73 -6q-153 0 -202 101l3 3q55 -89 199 -89q47 0 89 10.5t80.5 33.5t61 65.5t22.5 100.5q0 65 -33 108l4 1q15 -12 29.5 -44.5t14.5 -64.5z M243 46q-46 0 -79 32.5t-33 88.5q0 34 4 58l14 -10q-3 -15 -3 -48q0 -49 29.5 -82.5t67.5 -33.5v-5z" />
<glyph unicode="4" horiz-adv-x="602" d="M547 154q0 -40 -37 -40q-15 0 -25 8.5t-10 23.5q0 16 10 25q-9 8 -29 8h-44v-111l74 -68h-257l77 68v72h-282l-14 15h296v24h-306q72 89 132 233t60 249v10h126q0 -207 -238 -448h30q230 246 230 445l14 -9q0 -202 -224 -436h176v222q64 36 106 87v-309h25v299l14 -12 v-287h9q37 0 62 -18.5t25 -50.5zM582 147q0 -71 -67 -71q-20 0 -39.5 11.5t-22.5 32.5h-2v-47l119 -112h-306l-15 15h286l-98 91v88h20q1 -34 18.5 -48.5t39.5 -14.5q52 0 52 56q0 36 -32 56l5 1q16 -4 29 -21t13 -37z" />
<glyph unicode="5" horiz-adv-x="574" d="M514 686q0 -71 -37.5 -110t-105.5 -39h-219v-98q40 33 113 33q112 0 178.5 -64t66.5 -180q0 -120 -65 -179t-184 -59q-106 0 -168 40t-93 133q64 21 127 69q-3 -31 -3 -64q0 -63 38 -100t99 -37q68 0 104 53t36 142q0 195 -145 195q-41 0 -80 -27t-56 -81l-66 33v325h324 q69 0 69 31q0 7 -4 11q-6 -7 -18 -7q-11 0 -18.5 6.5t-7.5 17.5q0 13 8 20.5t20 7.5q24 0 38 -20.5t14 -47.5q0 -50 -28 -82t-85 -32h-253v-174q10 15 24 25v125h234q59 0 93.5 35.5t34.5 98.5q0 41 -21 53l3 2q14 -4 23.5 -21t9.5 -34zM379 317l-3 -3q-13 29 -43.5 47 t-66.5 18q-46 0 -77 -36.5t-48 -83.5l-76 38l-7 22l74 -37q16 48 51 81.5t83 33.5q42 0 72 -21.5t41 -58.5zM549 219q0 -137 -76.5 -202.5t-211.5 -65.5q-165 0 -214 100l2 4q35 -47 85 -68t127 -21q130 0 202 61.5t72 191.5q0 45 -15 89t-39 73l4 2q26 -23 45 -69.5 t19 -94.5zM275 41q-55 0 -90.5 34t-35.5 87q0 39 4 66l14 -6q-3 -28 -3 -60q0 -44 33.5 -80.5t77.5 -36.5v-4z" />
<glyph unicode="6" horiz-adv-x="554" d="M492 524q-41 -17 -81 -42l-16 6q57 38 91 51zM348 580l-3 -3q-9 14 -32.5 21t-43.5 7q-104 0 -122 -191l-16 -24q12 230 138 230q22 0 45 -11t34 -29zM370 326l-3 -3q-32 51 -90 51q-55 0 -91 -94l-6 -1q8 45 32 78t64 33q66 0 94 -64zM490 232q0 -109 -62 -176.5 t-170 -67.5q-68 0 -120 31.5t-81 84t-43 111t-14 120.5q0 56 10 107t31 95.5t52 77t75 51.5t97 19q76 0 124.5 -28.5t87.5 -94.5q-62 -24 -104 -59q-1 6 -1 20q0 51 -31.5 86.5t-78.5 35.5q-36 0 -63.5 -15t-43.5 -42.5t-26.5 -56.5t-15 -68.5t-6 -66.5t-1.5 -61 q0 -51 5.5 -97t20.5 -97t47.5 -81t79.5 -30q50 0 81.5 33.5t42.5 76t11 92.5q0 182 -123 182q-39 0 -66 -26t-39 -67q-1 -4 -3 -15t-4 -17q-6 -12 -18 -12q-19 0 -19 36q2 62 46.5 105t107.5 43q103 0 158.5 -63t55.5 -166zM532 223q0 -123 -72 -199t-191 -76 q-73 0 -128.5 34.5t-77.5 93.5l1 3q68 -115 204 -115q113 0 180 71t67 188q0 46 -16.5 92.5t-41.5 72.5l3 2q31 -23 51.5 -70.5t20.5 -96.5zM273 40q-68 0 -101.5 65t-38.5 158l16 -1q4 -52 17 -98.5t41 -82.5t66 -36v-5z" />
<glyph unicode="7" horiz-adv-x="560" d="M536 657q0 -61 -17.5 -119t-43 -106t-51.5 -94.5t-47 -103.5t-25 -114q-2 -24 -3 -50.5t-1.5 -58.5t-1.5 -50h-146l-15 15h146q1 16 1.5 45.5t1.5 54t3 45.5q4 59 25 117.5t47 106.5t51.5 97t43 107t17.5 118zM497 671q0 -79 -29 -154t-74 -153.5t-61 -125.5 q-5 -15 -9 -30.5t-6.5 -34.5t-4 -32t-2.5 -36.5t-1.5 -33t-1 -37t-0.5 -34.5h-137v42q0 131 47 224q37 73 117 161t91 110h-246q-1 -19 -3 -34t-8 -32t-15.5 -28t-26.5 -18.5t-40 -7.5q-20 0 -36.5 10.5t-23.5 24.5v4q20 -24 59 -24q35 0 53.5 19t22.5 41.5t4 59.5h267 q3 9 3 17v4l-1 3h-293v-18q0 -51 -11.5 -76.5t-50.5 -25.5q-28 0 -46.5 12.5t-18.5 36.5q0 12 6.5 20.5t19.5 8.5q25 0 25 -25q0 -11 -7 -18q3 -4 12 -4q22 0 22 50v134h404z" />
<glyph unicode="8" horiz-adv-x="594" d="M412 571l-4 -2q-4 15 -24.5 24t-40.5 9q-22 0 -31 -18t-28 -19l-3 2q10 5 14.5 18t14 22t33.5 9t44.5 -13t24.5 -32zM530 187q0 -96 -74.5 -147t-184.5 -51q-51 0 -96 9.5t-86 30.5t-65 62t-24 97q0 41 14 72.5t42.5 54t50.5 35t60 29.5q-27 12 -46.5 23.5t-41 30.5 t-33 44.5t-11.5 56.5q0 82 110 145q14 8 40 21.5t44 23t38 21.5t31.5 23t13.5 21q-26 7 -26 32q0 14 9 23t23 9q40 0 40 -45q0 -12 -3.5 -23t-12 -21t-15.5 -17.5t-20 -17t-20 -14t-21.5 -13.5t-17.5 -11q-7 -4 -30.5 -18t-33.5 -21.5t-25 -22t-21.5 -31t-6.5 -36.5 q0 -25 16 -46.5t48 -38.5t50.5 -25t53.5 -20q10 4 32 14q-176 58 -176 116q0 28 23 52t55.5 43t65.5 39t56 49t23 63q0 27 -19 40l3 1q30 -10 30 -41q0 -37 -23 -68t-55.5 -52t-65 -39.5t-55.5 -40.5t-23 -46q0 -49 178 -107q76 46 76 97q0 40 -19.5 62t-57.5 22 q-54 0 -63 -31q-5 -21 -22 -21q-22 0 -22 22q0 31 34 50.5t70 19.5q59 0 94 -32.5t35 -91.5q0 -49 -31.5 -81t-86.5 -61q175 -72 175 -223zM572 187q0 -80 -46.5 -135.5t-112.5 -78.5t-142 -23q-137 0 -198 74v4q72 -63 198 -63q117 0 200.5 56.5t83.5 165.5q0 69 -41 128 t-106 96q88 54 88 132q0 25 -12.5 54.5t-32.5 42.5h2q25 -9 41.5 -38.5t16.5 -58.5q0 -77 -73 -131q134 -84 134 -225zM432 161q0 66 -45 105t-123 70l-10 -5q-28 -14 -45.5 -24.5t-39.5 -28.5t-32.5 -40.5t-10.5 -50.5q0 -61 49 -101.5t114 -40.5v-6q-70 0 -124 40t-54 108 q0 91 114 146l20 10q-24 9 -30 13q-128 -64 -128 -164q0 -81 52.5 -122t130.5 -41q67 0 114.5 35.5t47.5 96.5z" />
<glyph unicode="9" horiz-adv-x="564" d="M336 580l-2 -3q-11 13 -35.5 21.5t-47.5 8.5q-48 0 -80 -41.5t-32 -107.5q0 -60 31 -108.5t73 -48.5v-4q-52 0 -85.5 47t-33.5 114q0 72 33.5 118t93.5 46q23 0 47 -12t38 -30zM501 372q0 -198 -112 -316.5t-303 -118.5q-22 0 -38 3l6 31q79 0 134 25q82 37 131 110.5 t66 162.5q-58 -74 -156 -74q-63 0 -115 24.5t-65 70.5l1 2q23 -41 72 -62t107 -21q50 0 94.5 26.5t66.5 69.5q4 28 4 64q0 141 -49 218q-39 59 -101 59q-67 0 -105.5 -55.5t-38.5 -132.5q0 -68 32 -119.5t96 -51.5q100 0 121 97q3 24 19 24q17 0 17 -26q0 -62 -48.5 -105 t-118.5 -43q-101 0 -159.5 60t-58.5 162q0 105 68 168t176 63q83 0 143.5 -48t87 -117.5t26.5 -149.5zM540 362q0 -214 -123.5 -339t-330.5 -125q-5 0 -11.5 1t-9.5 1l-10 15q20 -2 31 -2q202 0 320.5 121t118.5 328q0 67 -25 137t-63 106l4 1q47 -32 73 -101t26 -143z" />
<glyph unicode=":" horiz-adv-x="268" d="M170 61q0 -29 -18.5 -48t-47.5 -19t-47.5 19t-18.5 48t18.5 48.5t47.5 19.5t47.5 -19.5t18.5 -48.5zM202 50q0 -39 -22 -63t-64 -24q-20 0 -38 10.5t-23 26.5l1 2q19 -25 58 -25q37 0 56 21t19 54q0 34 -22 52h1q13 -4 23.5 -19.5t10.5 -34.5zM170 369q0 -29 -18.5 -48 t-47.5 -19t-47.5 19t-18.5 48t18.5 48.5t47.5 19.5t47.5 -19.5t18.5 -48.5zM202 358q0 -39 -22 -63t-64 -24q-20 0 -38 10.5t-23 26.5l1 2q19 -25 58 -25q37 0 56 21t19 54q0 34 -22 52h1q13 -4 23.5 -19.5t10.5 -34.5z" />
<glyph unicode=";" horiz-adv-x="256" d="M161 369q0 -29 -18.5 -48t-47.5 -19t-47.5 19t-18.5 48t18.5 48.5t47.5 19.5t47.5 -19.5t18.5 -48.5zM193 358q0 -39 -22 -63t-64 -24q-20 0 -38 10.5t-23 26.5l1 2q19 -25 58 -25q37 0 56 21t19 54q0 34 -22 52h1q13 -4 23.5 -19.5t10.5 -34.5zM171 117l19 -8 q16 -34 16 -74q0 -62 -41 -104.5t-99 -58.5l-19 7q68 19 105.5 60.5t37.5 101.5q0 38 -19 76zM148 116q15 -38 15 -75q0 -107 -138 -148l-2 7q47 32 47 95q0 45 -27 77q54 14 105 44z" />
<glyph unicode="&#x3c;" horiz-adv-x="1658" d="M1331 127v389l-56 -6v-377zM162 575q-29 -8 -85 -8q-25 0 -52 3q10 -21 27 -28t46 -7q62 0 64 40zM1406 154q-13 0 -23 -9t-10 -24t9 -24.5t23 -9.5q15 0 24.5 9.5t9.5 24.5q0 14 -9.5 23.5t-23.5 9.5zM1311 58v29l-80 12v69q-27 1 -50 7q-64 -71 -152 -71 q-51 0 -109 21.5t-91 60.5q-45 -99 -116 -99q-33 0 -54.5 15t-21.5 44v10q-7 -3 -21 -3q-31 0 -55 21t-24 51q0 9 3 21h-1q-28 0 -50 21.5t-22 57.5q0 30 15 57q19 38 63 82q-15 -2 -46 -2q-55 0 -109 23q-43 -23 -103 -23q-42 0 -72 10q-38 -17 -78 -17q-60 0 -98.5 39.5 t-38.5 104.5q58 -5 78 -5q8 0 58 5q22 3 36 3q45 0 62 1q47 4 81 11q2 1 24 9q14 8 39 13q1 0 52 6q29 3 35 4q69 10 171 10q12 0 34 2q10 1 29 1q167 0 337 -85q20 -10 50 -30q40 -26 54 -32q46 -20 91 -24v54q119 12 265 46v-616zM1240 457l13 7q-73 5 -122 28 q-21 9 -55.5 32t-50.5 31q-164 82 -326 82q-6 0 -29.5 -1.5t-33.5 -1.5q-65 -1 -168 -10q-75 -8 -85 -10q-13 -3 -33 -11.5t-30 -10.5q-20 -4 -85 -11q-15 -1 -51 -1q0 -30 -19 -48.5t-53 -18.5q-36 0 -71 11q10 -12 15 -16l23 -6l-5 -12l16 9l-2 -16l13 14v-19l11 18v-22 l13 20l1 -22l12 25l2 -26l11 26l3 -24l8 26l5 -24l9 27l4 -23l7 28l6 -23l8 32l3 -27l7 36l4 -31l7 32v-35l9 29v-32l10 27v-29l11 26v-28l10 27v-29l10 28l1 -30l7 29l3 -30l7 30l6 -29l4 30l6 -30l3 31l8 -29l2 31l7 -28v30l10 -27v30l10 -27l1 32l8 -28l2 32l9 -28l3 33 l6 -29l4 35l5 -31l6 37l3 -36l8 33v-37l8 32l2 -36l9 30v-34l9 28l1 -31l9 25v-28l9 24l-1 -26l11 24l-1 -26l11 24v-26l9 24l2 -25l7 24l5 -25l3 25l7 -25l4 24l8 -25l2 26l9 -25l3 25l10 -24l2 24l9 -23l1 24l10 -21v23l11 -22l-1 23l12 -21l-1 22l10 -20l-1 21l11 -18v18 l13 -11l2 -2q1 -2 2 -3q-87 -71 -116 -126q-8 -14 -11 -34l10 -10l-9 -6l10 -3l-9 -9l12 1l-8 -11l12 6l-6 -16l11 11l-4 -19l9 14l-2 -19l9 15l1 -19l6 17l3 -19l4 18l6 -16l-2 19l12 -14l-7 18l14 -11l-9 16l13 -9l-10 16l14 -10l-8 17l13 -9l-10 15l14 -7l-10 14l16 -8 l-12 15l15 -9l-11 16l16 -8l-11 13l15 -6l-9 13l13 -8l-9 15l15 -8l-11 15l15 -9l-9 15l12 -9l-6 15l10 -9l-6 16l12 -9l-6 14l11 -9l-6 13l11 -8l-3 11l7 -8v9l7 -7q6 0 6 -10q0 -2 -9 -13q-26 -35 -29 -39q-2 -3 -12.5 -18.5t-19 -28t-15.5 -29.5t-7 -29l11 -8l-6 -11 l14 6l-7 -14l14 8l-7 -14l12 12l-4 -18l11 14l-3 -18l11 16l-1 -20l8 20v-21l4 21l6 -20v21l9 -18l-3 19l10 -14l-3 17l10 -11l-6 15l14 -9l-9 15l14 -8l-9 15l13 -8l-10 14l14 -7l-8 14l13 -7l-11 15l15 -7l-11 13l15 -6l-11 14l15 -6l-9 15l13 -6l-9 14l13 -5l-9 13l13 -6 l-11 16l15 -8l-9 15l14 -6l-9 16l13 -9l-8 16l11 -8l-5 15l10 -10l-6 17l11 -10l1 8l5 -4q6 -6 6 -10q0 -13 -12 -37q-8 -18 -29 -50t-29 -50q-3 -9 -3 -18l7 -5l-7 -9l13 1l-10 -14l15 9l-6 -16l12 13l-3 -19l9 17l-1 -20l9 20l1 -22l8 22l2 -23l5 22l4 -22l5 22l4 -22 l3 23l4 -20v21l8 -18l-1 22l9 -19l-2 22l9 -16l-3 20l11 -15l-7 21l14 -15l-8 21l15 -12l-10 18l16 -11l-13 18l19 -10l-14 16l19 -7l-16 17l20 -9l-16 16l21 -7l-17 16l20 -7l-16 17l19 -9l-16 19l19 -10l-14 19l18 -9l-15 19l16 -10l-9 16l10 -4l6 8l2 -20l8 12l-3 -23 l13 17l-6 -27l14 22l-8 -32l19 28l-12 -34l23 29l-13 -36l23 32l-15 -40l27 33l-18 -37l30 32l-18 -42l29 36l-17 -44l27 40l-12 -46l23 40l-10 -44l21 40l-5 -45l18 41l-5 -46l16 43l-2 -47l15 45l-1 -49l13 46l1 -48l11 47l2 -47l7 46l7 -46l3 46l13 -46l-2 47l16 -44 l-6 45l17 -44l-6 47l18 -42l-10 43l24 -37l-16 40l29 -34l-19 39l31 -33l-23 37l35 -28l-28 33l38 -27l-30 32l37 -24l-28 27l37 -18l-25 22l31 -13l-19 17l25 -12l-13 16l30 -16l-18 21l39 -21l-28 25l45 -21l-40 28l51 -15l-45 23l51 -10l-43 17l45 -4l-40 13l42 -1 l-38 11l39 1l-36 9l36 3l-34 8l33 5l-32 7l32 4l-32 8l32 6l-31 6l31 7l-30 7l31 6l-29 7l29 6l-29 6l29 5l-27 5l27 4l-25 6l26 5l-25 5l26 4l-24 7l25 6l-23 5l22 5l-21 3l21 7l-18 3l18 5l-16 3l16 5l-15 3l15 4z" />
<glyph unicode="=" horiz-adv-x="435" d="M383 452v-166l-15 12v164zM344 311l-48 41h-211l-49 -41v148l49 -41h211l48 41v-148zM383 100l-15 13v154l15 -12v-155zM321 313h-212l-38 -33l-12 11l44 36h199zM344 129l-46 43h-212l-50 -43v151l48 -41h213l47 39v-149zM321 133h-212l-38 -32l-12 11l44 36h201z" />
<glyph unicode="&#x3e;" horiz-adv-x="1658" d="M165 516v-389l56 6v377zM1334 575q2 -40 64 -40q29 0 46 7t27 28q-27 -3 -52 -3q-56 0 -85 8zM90 154q-14 0 -23.5 -9.5t-9.5 -23.5q0 -15 9.5 -24.5t24.5 -9.5q14 0 23 9.5t9 24.5t-10 24t-23 9zM185 87v-29l-185 -86v616q146 -34 265 -46v-54q45 4 91 24q14 6 54 32 q30 20 50 30q170 85 337 85q19 0 29 -1q22 -2 34 -2q102 0 171 -10q6 -1 35 -4q51 -6 52 -6q25 -5 39 -13q22 -8 24 -9q34 -7 81 -11q17 -1 62 -1q14 0 36 -3q50 -5 58 -5q20 0 78 5q0 -65 -38.5 -104.5t-98.5 -39.5q-40 0 -78 17q-30 -10 -72 -10q-60 0 -103 23 q-54 -23 -109 -23q-31 0 -46 2q44 -44 63 -82q15 -27 15 -57q0 -36 -22 -57.5t-50 -21.5h-1q3 -12 3 -21q0 -30 -24 -51t-55 -21q-14 0 -21 3v-10q0 -29 -21.5 -44t-54.5 -15q-71 0 -116 99q-33 -39 -91 -60.5t-109 -21.5q-88 0 -152 71q-23 -6 -50 -7v-69zM243 464l13 -7 l-11 -4l15 -4l-15 -3l16 -5l-16 -3l18 -5l-18 -3l21 -7l-21 -3l22 -5l-23 -5l25 -6l-24 -7l26 -4l-25 -5l26 -5l-25 -6l27 -4l-27 -5l29 -5l-29 -6l29 -6l-29 -7l31 -6l-30 -7l31 -7l-31 -6l32 -6l-32 -8l32 -4l-32 -7l33 -5l-34 -8l36 -3l-36 -9l39 -1l-38 -11l42 1 l-40 -13l45 4l-43 -17l51 10l-45 -23l51 15l-40 -28l45 21l-28 -25l39 21l-18 -21l30 16l-13 -16l25 12l-19 -17l31 13l-25 -22l37 18l-28 -27l37 24l-30 -32l38 27l-28 -33l35 28l-23 -37l31 33l-19 -39l29 34l-16 -40l24 37l-10 -43l18 42l-6 -47l17 44l-6 -45l16 44 l-2 -47l13 46l3 -46l7 46l7 -46l2 47l11 -47l1 48l13 -46l-1 49l15 -45l-2 47l16 -43l-5 46l18 -41l-5 45l21 -40l-10 44l23 -40l-12 46l27 -40l-17 44l29 -36l-18 42l30 -32l-18 37l27 -33l-15 40l23 -32l-13 36l23 -29l-12 34l19 -28l-8 32l14 -22l-6 27l13 -17l-3 23 l8 -12l2 20l6 -8l10 4l-9 -16l16 10l-15 -19l18 9l-14 -19l19 10l-16 -19l19 9l-16 -17l20 7l-17 -16l21 7l-16 -16l20 9l-16 -17l19 7l-14 -16l19 10l-13 -18l16 11l-10 -18l15 12l-8 -21l14 15l-7 -21l11 15l-3 -20l9 16l-2 -22l9 19l-1 -22l8 18v-21l4 20l3 -23l4 22 l5 -22l4 22l5 -22l2 23l8 -22l1 22l9 -20l-1 20l9 -17l-3 19l12 -13l-6 16l15 -9l-10 14l13 -1l-7 9l7 5q0 9 -3 18q-8 18 -29 50t-29 50q-12 24 -12 37q0 4 6 10l5 4l1 -8l11 10l-6 -17l10 10l-5 -15l11 8l-8 -16l13 9l-9 -16l14 6l-9 -15l15 8l-11 -16l13 6l-9 -13l13 5 l-9 -14l13 6l-9 -15l15 6l-11 -14l15 6l-11 -13l15 7l-11 -15l13 7l-8 -14l14 7l-10 -14l13 8l-9 -15l14 8l-9 -15l14 9l-6 -15l10 11l-3 -17l10 14l-3 -19l9 18v-21l6 20l4 -21v21l8 -20l-1 20l11 -16l-3 18l11 -14l-4 18l12 -12l-7 14l14 -8l-7 14l14 -6l-6 11l11 8 q0 12 -7 29t-15.5 29.5t-19 28t-12.5 18.5q-3 4 -29 39q-9 11 -9 13q0 10 6 10l7 7v-9l7 8l-3 -11l11 8l-6 -13l11 9l-6 -14l12 9l-6 -16l10 9l-6 -15l12 9l-9 -15l15 9l-11 -15l15 8l-9 -15l13 8l-9 -13l15 6l-11 -13l16 8l-11 -16l15 9l-12 -15l16 8l-10 -14l14 7l-10 -15 l13 9l-8 -17l14 10l-10 -16l13 9l-9 -16l14 11l-7 -18l12 14l-2 -19l6 16l4 -18l3 19l6 -17l1 19l9 -15l-2 19l9 -14l-4 19l11 -11l-6 16l12 -6l-8 11l12 -1l-9 9l10 3l-9 6l10 10q-3 20 -11 34q-29 55 -116 126q1 1 2 2.5t2 2.5l13 11v-18l11 18l-1 -21l10 20l-1 -22l12 21 l-1 -23l11 22v-23l10 21l1 -24l9 23l2 -24l10 24l3 -25l9 25l2 -26l8 25l4 -24l7 25l3 -25l5 25l7 -24l2 25l9 -24v26l11 -24l-1 26l11 -24l-1 26l9 -24v28l9 -25l1 31l9 -28v34l9 -30l2 36l8 -32v37l8 -33l3 36l6 -37l5 31l4 -35l6 29l3 -33l9 28l2 -32l8 28l1 -32l10 27 v-30l10 27v-30l7 28l2 -31l8 29l3 -31l6 30l4 -30l6 29l7 -30l3 30l7 -29l1 30l10 -28v29l10 -27v28l11 -26v29l10 -27v32l9 -29v35l7 -32l4 31l7 -36l3 27l8 -32l6 23l7 -28l4 23l9 -27l5 24l8 -26l3 24l11 -26l2 26l12 -25l1 22l13 -20v22l11 -18v19l13 -14l-2 16l16 -9 l-5 12l23 6q5 4 15 16q-35 -11 -71 -11q-34 0 -53 18.5t-19 48.5q-36 0 -51 1q-65 7 -85 11q-10 2 -30 10.5t-33 11.5q-10 2 -85 10q-103 9 -168 10q-10 0 -33.5 1.5t-29.5 1.5q-162 0 -326 -82q-16 -8 -50.5 -31t-55.5 -32q-49 -23 -122 -28z" />
<glyph unicode="?" horiz-adv-x="481" d="M456 507q0 -42 -11.5 -77.5t-35 -64t-44 -47t-53.5 -42.5q-53 -39 -53 -112h-17q0 72 48 115q11 10 37.5 31t42.5 36t35 39t28 54.5t9 67.5q0 81 -63 125l3 3q32 -13 53 -48t21 -80zM284 575l-2 -2q-18 25 -67 25q-24 0 -37 -10t-13 -23q0 -17 23.5 -32.5t49.5 -17.5v-21 q-27 -11 -78.5 -52t-77.5 -78l-9 12q18 28 59 65t81 61q-26 6 -46 24.5t-20 38.5t18.5 33.5t47.5 13.5q23 0 44 -10t27 -27zM420 511q0 -45 -18 -81.5t-44.5 -61.5t-54 -47t-50 -49t-28.5 -57q-3 -15 -3 -37q0 -9 -6 -15.5t-15 -6.5q-30 0 -30 59q0 103 85 209q44 54 44 113 q0 45 -23 72.5t-68 27.5q-38 0 -62.5 -19.5t-24.5 -52.5q0 -44 50 -67q-73 -43 -114 -99q-43 66 -43 123q0 77 53.5 118.5t139.5 41.5q93 0 152.5 -43t59.5 -128zM268 61q0 -29 -18.5 -48t-47.5 -19t-47.5 19t-18.5 48t18.5 48.5t47.5 19.5t47.5 -19.5t18.5 -48.5zM300 50 q0 -39 -22 -63t-64 -24q-20 0 -38 10.5t-23 26.5l1 2q19 -25 58 -25q37 0 56 21t19 54q0 34 -22 52h1q13 -4 23.5 -19.5t10.5 -34.5z" />
<glyph unicode="@" horiz-adv-x="744" d="M715 335q0 -206 -187 -206h-39q-30 0 -51 13q-39 -21 -85 -21q-44 0 -82 13t-54 37v3q46 -41 136 -41q45 0 86 23q17 -15 50 -15h41q170 0 170 194q0 80 -34.5 146t-93.5 109l3 2q63 -37 101.5 -105.5t38.5 -151.5zM407 471l-3 -3q-16 19 -57 19q-28 0 -42 -17t-14 -35 v-7l-14 -3v6q0 26 16.5 47t53.5 21q42 0 60 -28zM676 335q0 -173 -148 -173h-48q-32 0 -45 23q-33 -33 -93 -33q-85 0 -127 35t-42 84q0 33 14 58t38.5 39.5t49.5 24t57 13t49 4.5t38 1h4v30q0 26 -19.5 51t-65.5 25q-42 0 -62 -26t-20 -63v-2q-8 4 -21 7.5t-30 8t-25 6.5 q13 40 51.5 69t108.5 29q178 0 178 -163v-181q15 0 22 1v186q0 72 -42 112l3 1q21 -13 36 -45.5t15 -67.5v-183q75 22 75 129q0 117 -83 200t-201 83q-117 0 -199.5 -83t-82.5 -200t82.5 -200t199.5 -83q58 0 114 23l22 -44q-63 -29 -136 -29q-137 0 -234.5 97.5 t-97.5 235.5t97.5 235.5t234.5 97.5q138 0 235.5 -97.5t97.5 -235.5zM575 476l-3 -3q-37 46 -101 76t-128 30q-101 0 -172 -71.5t-71 -172.5t78 -180t180 -84v-5q-113 0 -193 80t-80 189q0 107 75.5 183t182.5 76q71 0 134 -31t98 -87zM494 -4q-74 -33 -151 -33 q-95 0 -170 43.5t-111 123.5l2 2q111 -155 279 -155q77 0 145 31zM423 293v82q-19 0 -42.5 -4t-51.5 -14.5t-46.5 -33t-18.5 -54.5q0 -30 18.5 -56.5t59.5 -26.5q43 0 62 30t19 77zM417 350q-119 -20 -119 -80q0 -34 15.5 -54t37.5 -20v-3q-67 0 -67 77q0 32 25 53 t51.5 27.5t50.5 6.5h6v-7z" />
<glyph unicode="A" horiz-adv-x="803" d="M821 -39h-312l-19 15h290l-90 76l-98 250q13 4 32 4q11 0 33.5 -2t25.5 -2q-37 91 -47 126l19 -9q11 -38 50 -133l-81 6l-12 -1l91 -230zM735 0h-270l70 63l-55 143q-37 -29 -85 -94l-14 7q52 69 94 101l-10 25q-47 -28 -108 -115q-40 66 -84 117l-20 -53 q-18 -49 -18 -93q0 -14 6.5 -29t19.5 -31.5t23 -28t27.5 -29l22.5 -22.5h-290l-20 15h276l-19.5 19.5t-24 25t-17 22t-15.5 29.5t-4 29q0 49 29 122l14 36q-13 13 -19 20l-25 -64q-23 -62 -23 -103q0 -23 8 -42t17 -30t28 -31l8 -9h-257q45 30 71 56q29 29 59 87.5t49 113.5 l20 56q-41 23 -75 28q8 15 43 92q25 -18 60 -51l9 25q-38 34 -58 48l6 13q25 -18 58 -47l72 190l-48 60h234l-51 -60l85 -224q14 12 20 16l-77 203l42 50l11 -10l-36 -43l72 -191q7 5 40 27q5 -30 39 -110q-8 2 -21 2q-30 0 -63 -15l97 -253zM440 312l-72 188l-55 -149 q17 -18 74 -90q24 29 53 51zM377 249q-47 62 -81 99l64 173l-13 34l-79 -213q37 -37 93 -113q10 14 16 20z" />
<glyph unicode="B" horiz-adv-x="667" d="M618 493q0 -115 -114 -157q47 -23 74.5 -64t27.5 -93q0 -45 -13.5 -78t-34 -52t-53 -30.5t-63.5 -15t-71 -3.5h-346l76 68v220q-50 -4 -101 -15l7 16q44 8 94 14v25q-77 -9 -86 -11l23 69q36 -6 63 -6v189l-58 32q51 41 126.5 64t148.5 23q49 0 93 -9.5t83 -30.5 t62 -59.5t23 -90.5q0 -50 -34 -87.5t-91 -52.5v-3q17 -4 32 -11q50 18 83.5 55t33.5 94q0 75 -61 130l4 2q29 -18 50.5 -52.5t21.5 -79.5zM643 169q0 -47 -11.5 -82.5t-34 -57.5t-47.5 -36.5t-59.5 -21t-62 -8.5t-63.5 -2h-296l-20 15h316q43 0 74.5 2.5t69.5 14t62 31 t40.5 56.5t16.5 89q0 43 -21.5 81t-48.5 60l3 3q31 -14 56.5 -54.5t25.5 -89.5zM462 507q0 63 -38 98.5t-101 35.5q-65 0 -115 -32v-233h24v219q44 21 91 21q84 0 116 -50l-2 -3q-42 39 -114 39q-37 0 -76 -16v-210h25q39 0 68 4.5t59 17t46.5 40.5t16.5 69zM480 189 q0 25 -5.5 45t-17.5 34t-25 24.5t-33 17t-36 10t-40.5 5t-39.5 2t-39.5 1t-35.5 0.5v-278h24v253h10q105 0 148 -11q50 -14 68 -55l-1 -1q-15 22 -44 34t-47 13.5t-50 3.5q-19 1 -69 1v-238q132 0 182.5 27t50.5 112z" />
<glyph unicode="C" horiz-adv-x="596" d="M572 620q-39 -60 -91 -195l-13 11q51 133 93 200zM546 658q-55 -92 -96 -200q-1 4 -2 12.5t-2 12.5q-28 158 -138 158q-55 0 -95 -31.5t-58.5 -82t-26.5 -97.5t-8 -94q0 -77 17.5 -141.5t62 -111t110.5 -46.5q63 0 108 40.5t56 103.5q1 6 2 20.5t1 16.5q3 25 23 25 q21 0 21 -30q0 -103 -60 -163t-168 -60q-144 0 -218.5 97t-74.5 247q0 158 74.5 256t218.5 98q75 0 137 -34q23 -13 57 -13q29 0 59 17zM409 566l-1 -4q-34 40 -97 40q-44 0 -75.5 -26t-47.5 -68.5t-22.5 -84.5t-6.5 -87q0 -89 31 -169.5t78 -109.5l-3 -4q-56 24 -88.5 106 t-32.5 177q0 44 7 87.5t23.5 90t52 75t84.5 28.5q32 0 60.5 -14t37.5 -37zM553 182q0 -105 -71.5 -168t-188.5 -63q-119 0 -164 64l2 3q58 -52 162 -52q119 0 186 67t67 180l5 -1q2 -20 2 -30z" />
<glyph unicode="D" horiz-adv-x="636" d="M568 359q0 -182 -81 -270.5t-257 -88.5h-230l76 68v533l-76 70h250q160 0 239 -73t79 -239zM607 359q0 -197 -91.5 -297.5t-285.5 -100.5h-175l-20 15h195q187 0 274.5 95.5t87.5 287.5q0 72 -21 135t-52 94l5 2q37 -26 60 -89.5t23 -141.5zM451 360q0 139 -42 199.5 t-134 60.5h-91v-572h24v548h77q92 0 120 -51l-3 -3q-33 39 -117 39h-62v-533q122 4 175 83t53 229z" />
<glyph unicode="E" d="M606 642q-15 -21 -29.5 -44.5t-22.5 -39.5t-20.5 -42t-18.5 -38l-13 10q38 95 95 166zM451 220l-15 14v224l15 -14v-224zM599 0h-578l76 69v227q-14 0 -26.5 -5t-17.5 -8.5t-16.5 -14t-13.5 -11.5l-12 9q38 44 86 45v24q-25 0 -52 -13t-45 -33q0 44 27 70.5t70 27.5v214 l-76 70h557q-44 -61 -95 -162q-27 58 -55.5 84.5t-88.5 26.5h-134v-233h24v209h110q91 0 115 -50q-32 35 -115 35h-95v-194h99l69 86v-224l-69 86h-138v-284h24v260h114l11 -15h-110v-245h49q87 0 125 21.5t83 102.5q34 -97 98 -175zM648 -2l-31 -37h-552l-20 15h563l20 23 q-40 50 -60 83t-34 76l20 -8q22 -61 94 -152z" />
<glyph unicode="F" horiz-adv-x="621" d="M606 642q-16 -21 -30 -44.5t-20.5 -35t-21 -41t-17.5 -35.5l-13 10q34 84 93 158zM451 220l-15 14v224l15 -14v-224zM578 671q-44 -61 -95 -162q-27 58 -56 84.5t-88 26.5h-134v-233h24v209h110q91 0 115 -50q-32 35 -115 35h-95v-194h99l69 86v-224l-69 86h-138v-266 l76 -69h-260l76 69v227q-14 0 -26 -5t-18 -9.5t-16.5 -14.5t-13.5 -12l-12 9q39 45 86 47v24q-25 0 -52 -13t-45 -33q0 44 27 70.5t70 27.5v214l-76 70h557zM368 -39h-303l-19 15h284l-101 89v246h114l13 -15h-112v-224z" />
<glyph unicode="G" horiz-adv-x="666" d="M613 626q-11 -21 -44 -88t-46 -94l-13 14q86 175 92 185zM605 390l-75 -70v-261l68 -59h-306q-149 0 -220.5 90t-71.5 248q0 154 73 252t216 98q64 0 177 -36q22 -7 61 -7q25 0 63 17l-100 -191q-12 69 -61.5 119t-124.5 50q-51 0 -88.5 -27t-57.5 -73t-29 -95.5 t-9 -104.5q0 -289 207 -289h95v255h-122q-88 0 -103 40l2 2q27 -28 101 -28h122v25h-146q-94 0 -94 68q0 20 12 36t34 16q17 0 27 -10.5t10 -27.5q0 -26 -26 -31q9 -6 35 -6h331zM461 529l-1 -2q-23 34 -62 54t-84 20q-77 0 -116 -73.5t-39 -187.5q0 -100 33 -177t95 -98 l-1 -3q-48 11 -81 54.5t-47 100.5t-14 123q0 75 15 134t55 100.5t100 41.5q48 0 87.5 -22.5t59.5 -64.5zM684 -39h-392q-61 0 -106.5 18t-64.5 45l3 2q60 -50 168 -50h353l-91 81v253l67 60l11 -9l-63 -58v-239z" />
<glyph unicode="H" horiz-adv-x="688" d="M688 -39h-304l-14 15h278l-91 81v533l69 64l9 -11l-63 -59v-520zM609 0h-259l76 68v209q-55 -10 -101 -10q-40 0 -85 5v-208l117 -103h-305l-14 15h278l-91 81v232q64 -8 100 -8q39 0 101 10v25q-60 -10 -101 -10q-56 0 -124 10v-248l76 -68h-259l76 68v215 q-43 -3 -72 -30l-10 10q34 33 82 35v24q-58 -2 -94 -39q0 43 25.5 67.5t68.5 28.5v222l-76 70h259l-76 -70v-224l24 -3v216l68 64l10 -11l-63 -59v-211q40 -6 83 -6q47 0 103 9v225l-76 70h259l-76 -70v-533z" />
<glyph unicode="I" horiz-adv-x="349" d="M349 -39h-305l-15 15h280l-92 81v533l68 64l10 -11l-64 -59v-520zM269 0h-259l76 68v533l-76 70h259l-77 -70v-533z" />
<glyph unicode="J" horiz-adv-x="574" d="M557 643l-63 -59v-369q0 -26 4 -34t20 -18q4 -2 6 -4q-30 -210 -269 -210q-44 0 -80.5 19t-54.5 46l1 4q20 -23 56.5 -38.5t77.5 -15.5q226 0 253 189l-4 2q-17 8 -21 19.5t-4 40.5v375l68 64zM531 671l-76 -70v-386q0 -32 4.5 -45t22.5 -27q-11 -75 -71.5 -115 t-155.5 -40q-131 0 -189 110q-13 26 -27 43q-13 14 -39 27q90 51 165 116q-10 -33 -10 -101q0 -56 25 -100.5t72 -44.5q50 0 73 35t23 86v442l-76 70h259zM285 60l2 -8q-16 -4 -25 -4q-35 0 -58.5 40t-23.5 91q0 60 8 96l13 -12q-6 -30 -6 -84q0 -47 22.5 -84.5t44.5 -37.5 q12 0 23 3z" />
<glyph unicode="K" horiz-adv-x="713" d="M725 -39h-308l-16 15h281l-102 74l-188 381l59 75q44 56 84 88.5t105 55.5l13 -11q-66 -24 -107.5 -56.5t-85.5 -88.5l-51 -65l182 -369zM637 0h-263l52 68l-118 239l-86 -105v-138l117 -103h-305l-14 15h281l-94 81v151l94 114l-11 24l-107 -129v-149l76 -68h-259l76 68 v533l-76 70h259l-76 -70v-311l24 30v270l68 64l10 -11l-63 -59v-246l173 208q23 27 23 59q0 13 -6 24t-18 19t-20.5 12.5t-22.5 10.5h278q-66 -24 -113.5 -64t-94.5 -100l-58 -73l180 -366z" />
<glyph unicode="L" horiz-adv-x="608" d="M542 0h-542l76 68v533l-76 70h259l-76 -70v-550h24v539l68 64l10 -11l-63 -59v-532q69 4 128 45t94 117q28 -127 98 -214zM589 -2l-31 -37h-522l-20 15h534l19 23q-75 90 -98 203l21 -14q16 -87 97 -190z" />
<glyph unicode="M" horiz-adv-x="792" d="M792 -39h-297l-17 15h276l-93 82v532l69 64l9 -11l-63 -59v-520zM713 0h-259l76 68v340l-165 -447h-38l-15 15h43l175 474v71l-192 -521h-36l-138 408v-268q0 -50 11.5 -78.5t24.5 -37t41 -20.5l10 -4l-24 -39h-188l-15 15h194l12 19q-45 17 -63 44t-18 101v312l-21 62 h-3v-354q0 -28 2 -46.5t8 -42.5t22 -42t41 -29h-198q76 43 76 159v442l-76 70h278l-78 -70l146 -428l14 36l-132 384l66 60l10 -11l-59 -53l123 -358l145 386l-59 54h259l-76 -70v-533z" />
<glyph unicode="N" horiz-adv-x="615" d="M595 645q-35 -19 -46.5 -47.5t-11.5 -86.5v-550h-102l-15 15h102v535q0 57 12 92t54 50zM571 671q-25 -11 -41 -29t-22 -42t-8 -42.5t-2 -46.5v-511h-97l-237 467v-327q0 -24 2 -42t8 -31.5t9 -21.5t15 -16.5t15 -10.5t19 -9.5t19 -8.5l-24 -39h-188l-15 15h194l12 19 q-45 17 -63 44t-18 101v356l-19 38h-5v-374q0 -28 2 -46.5t8 -42.5t22 -42t41 -29h-198q77 44 77 159v442l-77 70h274l-66 -59l241 -479v54l-211 420l53 46l9 -11l-44 -39l193 -385v295q0 115 -76 158h198z" />
<glyph unicode="O" horiz-adv-x="644" d="M615 333q0 -106 -34 -190.5t-109 -138.5t-182 -54q-68 0 -119 27.5t-74 67.5l1 2q77 -82 192 -82q102 0 173.5 51.5t104 132.5t32.5 184q0 97 -36.5 178.5t-88.5 125.5l3 1q65 -42 101 -121.5t36 -183.5zM576 333q0 -151 -74 -247.5t-212 -96.5q-142 0 -216 97.5 t-74 246.5q0 159 74.5 257t212.5 98q74 0 131 -29t90.5 -79.5t50.5 -112.5t17 -134zM455 335q0 46 -7.5 93t-24 96t-51.5 80t-83 31t-83.5 -31t-52.5 -80t-25 -96t-8 -93q0 -119 43.5 -205.5t125.5 -86.5q56 0 94.5 44t55 108t16.5 140zM395 557l-3 -3q-41 42 -95 42 q-40 0 -69 -29t-43 -74t-20 -84.5t-6 -73.5q0 -96 30.5 -177t77.5 -100l-1 -4q-58 18 -89.5 98.5t-31.5 182.5q0 38 6.5 80t22 88.5t47.5 76.5t76 30q63 0 98 -53z" />
<glyph unicode="P" horiz-adv-x="623" d="M604 487q0 -238 -306 -238q-9 0 -18.5 0.5t-21 1.5t-18.5 1v-184l120 -107h-298l-20 15h280l-97 87v204q72 -3 73 -3q42 0 77 3.5t76.5 17t70 36.5t48 65.5t19.5 100.5q0 55 -25.5 97.5t-65.5 59.5l2 2q44 -8 74 -54.5t30 -104.5zM568 488q0 -51 -18 -89t-45 -59 t-65 -33.5t-70 -16.5t-68 -4q-54 0 -101 6v-224l76 -68h-259l75 67v190q-34 0 -61 -23l-15 6q30 32 76 32v24q-59 0 -93 -39q0 43 25 67t68 28v249l-76 70h277q45 0 77 -2.5t72 -13t65 -29t42.5 -54t17.5 -84.5zM447 487q0 68 -42.5 100.5t-112.5 32.5h-91v-274q12 -3 24 -3 v253h77q95 0 122 -51l-2 -3q-33 39 -120 39h-62v-239q14 -2 47 -2q68 0 114 33.5t46 113.5z" />
<glyph unicode="Q" horiz-adv-x="640" d="M615 333q0 -99 -32 -182.5t-94 -134.5q10 -7 26 -7q29 0 53 8l11 -13q-31 -9 -64 -9q-27 0 -50 21q67 48 101 131t34 186q0 97 -36.5 178.5t-88.5 125.5l3 1q65 -42 101 -121.5t36 -183.5zM587 -16q-66 -76 -83 -132q-61 5 -99 45q-24 25 -40 61q-38 -8 -75 -8 q-68 0 -119 27.5t-74 67.5l1 2q77 -82 192 -82q36 0 68 6q-2 5 -6 13.5t-4 9.5q-30 -5 -58 -5q-140 0 -215 96.5t-75 247.5q0 159 74.5 257t212.5 98t213.5 -98t75.5 -257q0 -107 -38.5 -189.5t-111.5 -122.5q22 -26 40 -38.5t45 -12.5q41 0 76 14zM616 -42 q-45 -52 -67 -103l-18 -2q28 64 74 117zM455 335q0 46 -7.5 93t-24 96t-51.5 80t-83 31t-83.5 -31t-52.5 -80t-25 -96t-8 -93q0 -119 43.5 -205.5t125.5 -86.5q16 0 34 5q-28 47 -65 51l29 39h2q49 0 90 -56q8 6 16 18q-45 53 -89 58l11 12q28 -6 46 -18.5t41 -38.5 q51 82 51 222zM395 557l-3 -3q-41 42 -95 42q-40 0 -69 -29t-43 -74t-20 -84.5t-6 -73.5q0 -96 30.5 -177t77.5 -100l-1 -4q-58 18 -89.5 98.5t-31.5 182.5q0 38 6.5 80t22 88.5t47.5 76.5t76 30q63 0 98 -53z" />
<glyph unicode="R" horiz-adv-x="687" d="M667 -24q-135 -42 -211 -88l-16 8q88 52 201 87q-80 88 -126.5 156t-95.5 169q75 28 120 70t45 114q0 43 -20 81.5t-46 61.5l2 1q27 -12 53 -55t26 -89q0 -76 -42.5 -120.5t-116.5 -72.5q49 -98 94 -162t133 -161zM597 -5q-28 -8 -41 -13q-55 -18 -126 -62 q-33 201 -90 351q-59 -11 -109 -17v-185l122 -108h-300l-20 15h282l-98 87v205q53 4 118 17q-4 7 -10 23q-53 -11 -133 -18v-222l77 -68h-259l76 68v176q-38 -3 -74 -10l-10 15q5 1 84 10v25q-77 -9 -86 -11l23 69q4 -1 63 -6v233l-58 32q51 41 126.5 64t148.5 23 q51 0 93 -8.5t81 -28t61 -58t22 -93.5q0 -124 -175 -177q51 -108 97.5 -180.5t114.5 -147.5zM439 501q0 65 -34 102.5t-96 37.5q-64 0 -117 -34v-267q16 2 25 2v251q44 23 97 23q74 0 102 -45l-2 -2q-26 33 -100 33q-42 0 -83 -18v-240q208 24 208 157z" />
<glyph unicode="S" horiz-adv-x="627" d="M571 627q-42 -69 -85 -166l-14 12q37 87 89 170zM417 559l-3 -2q-20 20 -56.5 32.5t-66.5 12.5q-39 0 -64 -18t-25 -49t19 -57t46 -42l-2 -3q-78 29 -78 102q0 39 29.5 60.5t74.5 21.5q33 0 70.5 -15.5t55.5 -42.5zM558 189q0 -98 -69.5 -149.5t-177.5 -51.5 q-22 0 -46.5 4t-39 8t-45 13.5t-41.5 12.5q-41 13 -67 13q-38 0 -72 -17q72 115 104 198q7 -41 22 -78q22 -55 71 -82t112 -27q56 0 101 29.5t45 82.5q0 35 -14 61.5t-40.5 43.5t-52.5 27t-63 19q-52 13 -86 26t-71 36t-55.5 60t-18.5 87q0 88 65 133.5t157 45.5 q61 0 134 -20q7 -2 25 -7.5t30.5 -8t24.5 -2.5q13 0 53 14q-56 -89 -89 -171q-8 28 -13 41q-19 49 -59 80t-92 31q-49 0 -88 -25t-39 -78q0 -21 5 -38.5t16.5 -30t21.5 -21.5t30.5 -16.5t32.5 -11.5t37 -11t35 -10q103 -29 151 -68q66 -53 66 -142zM447 170l-3 -2 q-23 31 -67 51t-90 31.5t-90.5 26t-78 43.5t-43.5 74l3 4q18 -42 55.5 -68.5t81.5 -39.5t88.5 -25t84 -35t59.5 -60zM597 184q0 -61 -24 -107.5t-65 -73.5t-90.5 -40.5t-106.5 -13.5q-46 0 -125 25.5t-114 25.5q-25 0 -54 -12l-10 12q33 15 64 15q32 0 112 -25.5t127 -25.5 q55 0 102.5 12.5t86.5 38t61 69t22 100.5q0 91 -82 156l1 1q39 -16 67 -59t28 -98zM318 43q-84 1 -127.5 38.5t-52.5 116.5l22 -15q19 -127 158 -135v-5z" />
<glyph unicode="T" horiz-adv-x="666" d="M646 646q-16 -34 -39.5 -89t-33.5 -78l-14 12q6 15 17 42t17.5 43t18 39.5t24.5 45.5zM616 671q-44 -79 -71 -166q-6 39 -21.5 63.5t-43.5 35t-53 13.5t-66 3v-552l77 -68h-260l76 68v513q-81 0 -110 -20.5t-40 -99.5l-12 17q11 76 45.5 96.5t116.5 21.5v24 q-41 0 -65.5 -3t-52.5 -13.5t-43.5 -35t-21.5 -63.5q-33 93 -71 166h616zM528 543h-1q-22 34 -127 38v-513l121 -107h-301l-20 15h283l-97 87v532q119 -2 142 -52z" />
<glyph unicode="U" horiz-adv-x="638" d="M618 643l-64 -59v-369v-14.5t2 -10.5t2 -7.5t4.5 -6.5t5.5 -5t8.5 -5.5t9.5 -6.5q-20 -111 -87 -160.5t-182 -49.5q-171 0 -221 95l1 4q60 -84 220 -84q217 0 252 189q-11 8 -15 11.5t-8 10.5t-5 15.5t-1 24.5v375l68 64zM591 671l-76 -70v-386q0 -32 5 -45t23 -27 q-31 -155 -226 -155q-102 0 -177 38.5t-91 116.5q18 14 23 27.5t5 44.5v386l-77 70h259l-76 -70v-359q0 -28 1 -48t9 -51.5t21.5 -51t42 -35t67.5 -15.5q142 0 142 201v359l-76 70h201zM329 49q-121 2 -121 193v348l68 64l10 -11l-64 -59v-342q0 -181 107 -190v-3z" />
<glyph unicode="V" horiz-adv-x="684" d="M759 803q-70 -85 -105.5 -149t-77.5 -177l-155 -414l98 -102h-281l-14 15h259l-79 84l158 422q43 114 78.5 181.5t105.5 150.5zM728 830q-72 -85 -109 -155t-80 -185l-158 -422l65 -68h-245l65 68l-194 533l-72 70h250l-73 -70l179 -486l13 36l-163 443l61 60l11 -11 l-55 -53l154 -418l121 327q26 69 26 146q0 71 -38 99q89 15 242 86z" />
<glyph unicode="W" horiz-adv-x="869" d="M952 806q-125 -141 -191 -388l-89 -335l123 -122h-287l-14 15h266l-104 102l97 368q58 217 185 370zM920 830q-132 -160 -177 -329l-106 -395l11 -38l70 -68h-245l69 68l-96 332l-86 -323l119 -116h-290l-14 15h268l-99 96l94 356l-13 45l-101 -379l7 -26l70 -68h-245 l68 68l-156 533l-68 70h241l-68 -70l123 -418l13 46l-109 365l59 60l10 -10l-52 -54l99 -335l109 416h51l139 -483l12 47l-125 432l19 -12l114 -392l76 294q11 40 11 83q0 68 -40 105q140 29 238 85z" />
<glyph unicode="X" horiz-adv-x="736" d="M758 -39h-317l-19 15h294l-103 80l-209 310l149 217l104 68l8 -12l-102 -67l-141 -205l202 -301zM666 0h-268l59 68l-120 177l-125 -181l95 -103h-262l-19 15h248l-81 86l136 196l-15 21l-145 -210l64 -69h-233l109 71l175 253l-188 277l-92 70h263l-58 -60l135 -199 l15 21l-118 175l43 47l11 -10l-36 -38l109 -161l106 155l-59 70h229l-109 -70l-161 -234l203 -299z" />
<glyph unicode="Y" horiz-adv-x="680" d="M786 798q-96 -82 -209 -268l-157 -257v-207l118 -105h-298l-15 15h273l-93 83v218l164 269q123 199 208 265zM762 830q-70 -53 -160 -195l-221 -351v-216l76 -68h-259l76 68v214l-199 319l-75 70h247l-55 -64l170 -271l15 24l-154 245l43 51l11 -10l-36 -42l144 -231 l139 223q26 43 26 81q0 41 -36 67q103 24 248 86z" />
<glyph unicode="Z" horiz-adv-x="648" d="M595 652l-390 -601h69q87 0 125 21.5t83 102.5q33 -94 98 -175h-578q66 101 368 581h-68q-81 0 -109.5 -19t-70.5 -96l-13 9q24 43 35 60t33 34.5t49.5 21.5t75.5 4h77l16 25h-93q-90 0 -132.5 -23.5t-75.5 -99.5q-31 88 -98 174h563l-400 -620h28l394 612zM630 -2 l-32 -37h-552l-19 15h563l19 23q-40 50 -60 83t-33 76l19 -8q21 -59 95 -152z" />
<glyph unicode="[" horiz-adv-x="407" d="M393 -137h-353l-17 15h333l-117 107h-25v591h30l82 78l10 -11l-87 -81h-20v-562h16zM310 -98h-303l76 69v630l-76 70h303l-76 -70h-45v-630h45z" />
<glyph unicode="\" horiz-adv-x="610" d="M590 -6l-29 -33h-275l-14 15h281l15 17l-119 91l-246 522l46 49l13 -9l-41 -43l240 -509zM518 0h-268l59 68l-248 533l-93 70h263l-57 -60l255 -543z" />
<glyph unicode="]" horiz-adv-x="407" d="M407 -137h-348l-15 15h328l-95 89v623l69 64l10 -11l-64 -59v-611zM329 -98h-303l76 69h44v630h-44l-76 70h303l-76 -70v-631z" />
<glyph unicode="^" horiz-adv-x="554" d="M525 442h-228l-11 15h209l-225 286l23 -6zM444 482h-179l43 57l-49 63l-56 -72l66 -88h-222l-10 15h202l-55 73l66 84l-16 19l-75 -94l45 -57h-180l210 266z" />
<glyph unicode="_" horiz-adv-x="739" d="M750 -168h-761v75h761v-75zM-11 -191h761v-15h-761v15z" />
<glyph unicode="`" horiz-adv-x="315" d="M275 616h-48q-5 0 -40 -5l-9 11q24 6 49 6h30q-26 54 -75 117l19 -5q46 -61 74 -124zM229 642q-32 0 -65 -8q-15 19 -42.5 47t-49.5 45l86 22q13 -15 39 -53.5t32 -52.5z" />
<glyph unicode="a" horiz-adv-x="517" d="M270 387l-3 -3q-21 23 -64 23q-22 0 -34.5 -10t-15 -18.5t-2.5 -16.5v-10l-15 -4v12q1 11 3 18.5t8 19t20 18t35 6.5q48 0 68 -35zM492 -39h-128q-37 0 -58 14q-47 -26 -105 -26q-49 0 -91.5 17.5t-61.5 47.5l1 3q55 -53 152 -53q60 0 106 29q18 -17 57 -17h103l-45 75 v233q0 90 -47 140l3 2q24 -16 41.5 -57t17.5 -85v-227zM437 0h-83q-41 0 -51 29q-19 -20 -56 -30t-65 -10q-96 0 -137.5 43t-41.5 105q0 170 280 174h3.5h2.5v38q0 33 -20.5 64t-68.5 31q-44 0 -66 -26t-22 -69q-40 17 -86 27q15 48 52.5 76.5t116.5 28.5q52 0 89.5 -10.5 t59.5 -27.5t34 -44t16 -53.5t4 -63.5v-219zM289 165v100q-23 0 -49 -5t-58.5 -17t-53.5 -40.5t-21 -68.5q0 -37 21.5 -70t68.5 -33q92 0 92 134zM282 232q-24 0 -52.5 -7t-56 -30.5t-27.5 -58.5q0 -43 18 -68t43 -25v-4q-77 0 -77 97q0 32 17.5 55t44.5 33.5t49 15t41 4.5 v-12z" />
<glyph unicode="b" horiz-adv-x="517" d="M461 233q0 -107 -51 -174t-151 -67q-63 0 -92 32q-7 -13 -18 -18.5t-37 -5.5h-112l59 63v538l-59 70l156 35v-251q3 2 7 4l9 4.5t8 3.5v234l15 -10v-219q30 9 65 9q97 0 149 -68.5t52 -179.5zM498 228q0 -119 -56 -197t-169 -78q-49 0 -87 20q-21 -12 -50 -12h-102 l-14 15h116q30 0 50 14q36 -22 87 -22q105 0 157.5 73t52.5 187q0 49 -17.5 101t-40.5 75l3 2q29 -19 49.5 -73t20.5 -105zM344 234q0 212 -84 212q-27 0 -46 -21.5t-27.5 -57t-12 -67.5t-3.5 -66q0 -84 22.5 -144.5t65.5 -60.5q85 0 85 205zM322 371l-4 -2q-16 38 -49 38 q-18 0 -31 -21.5t-18.5 -53.5t-8 -56t-2.5 -42q0 -25 4 -64t17.5 -82t34.5 -44v-5q-22 0 -37 24t-22 60t-9.5 63t-2.5 48q0 24 2 48.5t8.5 59.5t23 57t41.5 22q40 0 53 -50z" />
<glyph unicode="c" horiz-adv-x="416" d="M388 326q-34 -18 -65 -46l-12 12q37 38 72 51zM282 381l-3 -2q-21 30 -56 30q-67 0 -67 -175q0 -24 2.5 -50.5t9 -62t23 -60t39.5 -26.5v-3q-88 0 -88 202q0 190 78 190q40 0 62 -43zM378 143q0 -67 -42.5 -109t-128.5 -42q-102 0 -154.5 68t-52.5 173q0 111 52 179.5 t153 68.5q130 0 171 -114q-42 -16 -78 -55v20q0 43 -20 79.5t-63 36.5q-30 0 -51 -21.5t-30 -58t-12.5 -68t-3.5 -66.5q0 -54 8.5 -98.5t32.5 -77.5t61 -33q42 0 71 28.5t31 73.5q2 47 29 47t27 -31zM392 153h9q2 -16 2 -31q0 -79 -50 -124t-136 -45q-52 0 -94 22t-62 60 l1 2q24 -31 65 -50t90 -19q175 0 175 185z" />
<glyph unicode="d" horiz-adv-x="542" d="M510 -39h-146q-40 0 -61 13q-39 -21 -89 -21q-52 0 -95 24t-61 60l2 1q24 -32 65 -51t89 -19q50 0 90 23q19 -15 60 -15h118l-55 78v646l15 -9v-630zM447 0h-97q-26 0 -37.5 5.5t-18.5 18.5q-33 -32 -91 -32q-98 0 -150.5 67.5t-52.5 173.5q0 111 52 179.5t149 68.5 q62 0 106 -26v146l-59 70l155 35v-643zM289 234q0 212 -87 212q-85 0 -85 -212q0 -54 7.5 -98.5t27.5 -75.5t50 -31q32 0 52.5 32t27.5 75.5t7 97.5zM263 371l-4 -2q-7 18 -20 28t-28 10q-18 0 -30.5 -21t-17 -54.5t-6 -55.5t-1.5 -42q0 -28 3 -64.5t15.5 -80.5t32.5 -45v-5 q-22 0 -36.5 24t-20.5 60.5t-8 62.5t-2 48q0 187 70 187q40 0 53 -50z" />
<glyph unicode="e" horiz-adv-x="458" d="M428 189h-270v-4q0 -17 2.5 -38t9 -47.5t21.5 -44t36 -17.5h2v-3h-5q-81 0 -81 163v6h270v24q0 119 -52 189l3 1q28 -20 46 -69.5t18 -120.5v-39zM394 228h-276q2 -203 102 -203q45 0 78 28.5t38 73.5q1 8 3 22q2 25 27 25q13 0 20 -8t7 -19q0 -67 -49 -111t-129 -44 q-110 0 -162.5 67t-52.5 174q0 110 53.5 179t152.5 69q83 0 135.5 -59.5t52.5 -193.5zM421 112q0 -68 -54.5 -113.5t-139.5 -45.5q-53 0 -99.5 22.5t-66.5 59.5l1 2q23 -31 69 -50t96 -19q85 0 135 49.5t50 125.5v10h5q4 -19 4 -41zM297 284q0 24 -2.5 47t-10.5 52t-26 47 t-44 18q-34 0 -56.5 -28t-29.5 -62t-8 -74h22q6 141 77 141q15 0 31.5 -10.5t22.5 -24.5l-2 -2q-21 22 -52 22q-29 0 -44.5 -36.5t-16.5 -89.5h139z" />
<glyph unicode="f" horiz-adv-x="398" d="M383 567q-6 -6 -16 -15t-15.5 -14t-16 -17.5t-23.5 -30.5l-17 6q40 55 84 88zM374 607q-19 -15 -47.5 -44t-40.5 -47q0 105 -58 105q-36 0 -48.5 -26t-12.5 -83v-40h25v41q0 85 41 85q29 0 40 -35l-2 -2q-16 23 -35 23q-29 0 -29 -61v-51h26v-60h-66v-349l59 -63h-212 l58 63v310h-13q-28 0 -42 -15l-11 11q15 19 53 19h13v24h-21q-36 0 -51 -16q0 35 14 52q17 24 58 24v7q0 118 41.5 162.5t116.5 44.5q107 0 144 -79zM297 -39h-254l-14 15h235l-72 77v335h40v-15h-25v-313z" />
<glyph unicode="g" horiz-adv-x="482" d="M462 -89q0 -83 -62.5 -133t-168.5 -50q-55 0 -101 14t-64 37l2 4q46 -40 163 -40q99 0 157 46.5t58 121.5q0 63 -51 113t-137 62q70 14 118.5 68t48.5 131q0 80 -53 143q14 17 35 17q7 0 11 -1l13 -14h-7q-18 0 -28 -7q45 -65 45 -138q0 -75 -38.5 -125.5t-93.5 -70.5 q69 -16 111 -66t42 -112zM428 -93q0 -64 -54 -107.5t-158 -43.5q-105 0 -160 46t-55 122v4q41 -21 98 -21h18v-10q0 -41 22.5 -69.5t75.5 -28.5t75.5 27.5t22.5 66.5q0 34 -30 67t-96 33t-122 -18q-5 -1 -13 -1q-11 0 -19 7t-8 19q0 10 10 25q43 62 63 108 q-42 25 -66.5 66.5t-24.5 89.5q0 81 52.5 133.5t146.5 52.5q47 0 87 -16q20 40 65 43l50 -41q-42 0 -60 -34q59 -56 59 -138q0 -77 -52 -131t-147 -54q-47 0 -86 17q-11 -37 -27 -63q48 13 104 13q109 0 169 -45.5t60 -118.5zM297 -90h-2q0 8 -9.5 19t-33 21t-53.5 10 q-39 0 -97 -10l-24 8q68 16 121 16q51 0 74.5 -20.5t23.5 -43.5zM216 -187q-37 0 -58 22.5t-21 56.5v9l19 -6v-5q0 -69 60 -74v-3zM294 288q0 152 -87 152q-36 0 -57.5 -28.5t-26.5 -58.5t-5 -65q0 -62 21.5 -105t67.5 -43t66.5 42.5t20.5 105.5zM266 387l-3 -2 q-16 27 -49 27q-19 0 -32 -15.5t-18 -39t-7 -40t-2 -30.5q0 -12 2.5 -31.5t8.5 -44.5t17.5 -42.5t27.5 -18.5v-3q-28 0 -45 31t-21 59t-4 50q0 136 73 136q39 0 52 -36z" />
<glyph unicode="h" horiz-adv-x="544" d="M539 -39h-220l-15 15h203l-64 78v212q0 114 -49 163l3 2q61 -40 61 -165v-206zM473 0h-204l54 63v205q0 26 -0.5 39.5t-2.5 37.5t-7.5 37.5t-14.5 28t-24 21t-36 6.5q-28 0 -46 -15t-25 -44t-9 -52t-2 -59v-205l59 -63h-215l59 63v538l-59 70l156 35v-276q9 16 24 29v242 l15 -10v-223q26 13 60 13q93 0 128.5 -52t35.5 -163v-203zM305 373l-4 -1q-19 27 -52 27q-54 0 -54 -131v-208l89 -99h-250l-14 15h231l-71 78v214q0 28 1.5 45.5t7 44.5t20.5 41.5t39 14.5q19 0 35 -11t22 -30z" />
<glyph unicode="i" horiz-adv-x="292" d="M180 613q0 -32 -20.5 -53.5t-52.5 -21.5q-33 0 -53.5 21t-20.5 54t20.5 54t53.5 21t53 -21t20 -54zM215 600q0 -42 -25.5 -69t-69.5 -27q-21 0 -41.5 12t-26.5 29l1 2q22 -28 65 -28q39 0 61 24.5t22 59.5q0 34 -25 57l2 1q14 -6 25.5 -24t11.5 -37zM297 -39h-256l-15 15 h234l-71 76v420h15v-413zM223 0h-213l58 63v345l-58 64h155v-409z" />
<glyph unicode="j" horiz-adv-x="254" d="M225 600q0 -42 -25.5 -69t-69.5 -27q-21 0 -41.5 12t-26.5 29l1 2q22 -28 65 -28q39 0 61 24.5t22 59.5q0 34 -25 57l2 1q14 -6 25.5 -24t11.5 -37zM213 472v-488q0 -97 -50 -150t-145 -53q-12 0 -38 2v3q102 0 160.5 50.5t58.5 147.5v488h14zM174 472v-434 q0 -43 -2 -68.5t-13 -60.5t-31.5 -55t-60.5 -35.5t-97 -18.5q-8 54 -45 122q30 -6 61 -6q92 0 92 102v390l-69 64h165zM191 613q0 -32 -20.5 -53.5t-52.5 -21.5q-33 0 -53.5 21t-20.5 54t20.5 54t53.5 21t53 -21t20 -54z" />
<glyph unicode="k" horiz-adv-x="522" d="M522 -39h-208l-14 15h192l-65 75l-153 221l91 105q18 21 44 44t42 32l9 -11q-13 -9 -42.5 -35t-42.5 -41l-82 -95l145 -211zM452 0h-202l39 -39h-257l-15 15h238l-75 77v117l15 -19v-91l48 -52l34 55l-121 172v-172l62 -63h-218l59 63v538l-59 70l156 35v-457l24 28v423 l15 -9v-397l77 90q13 15 13 27q0 29 -32 61h187q-18 -11 -47.5 -35.5t-39.5 -36.5l-110 -126l146 -211z" />
<glyph unicode="l" horiz-adv-x="298" d="M288 -39h-256l-15 15h234l-71 76v648l15 -9v-632zM213 0h-213l59 63v538l-59 70l156 35v-643z" />
<glyph unicode="m" horiz-adv-x="784" d="M779 -39h-219l-15 15h201l-66 76v214q0 113 -50 163l3 2q61 -40 61 -165v-208zM544 373l-2 -1q-15 27 -44 27q-52 0 -52 -107v-236l87 -95h-230l-12 15h208l-67 73v243q0 23 1 37.5t6.5 37.5t19.5 35t36 12q37 0 49 -41zM708 0h-198l49 63v215q0 30 -0.5 45.5t-4.5 41 t-12 39t-23.5 24t-38.5 10.5q-45 0 -60.5 -37.5t-15.5 -105.5v-232l56 -63h-204l52 63v205q0 29 -0.5 43.5t-2.5 38t-6.5 36t-13 26.5t-22 20t-31.5 6q-46 0 -61 -40.5t-15 -112.5v-222l52 -63h-208l59 63v345l-59 64h156v-42q30 51 95 51q96 0 131 -73q34 73 116 73 q92 0 124.5 -53t32.5 -162v-203zM293 373l-3 -1q-14 27 -42 27q-18 0 -29.5 -12t-15.5 -35t-5 -38t-1 -39v-217l80 -97h-243l-14 15h225l-63 75v224q0 18 0.5 28.5t2 29.5t6 31t11 25t18.5 19t28 6q17 0 29.5 -12t15.5 -29z" />
<glyph unicode="n" horiz-adv-x="556" d="M551 -39h-218l-14 15h199l-70 77v213q0 114 -49 163l3 2q61 -40 61 -165v-206zM480 0h-206l54 63v215q0 26 -0.5 39t-2.5 35.5t-7.5 34.5t-14 25.5t-23.5 19.5t-35 6q-28 0 -46 -13.5t-25.5 -39.5t-10 -49t-2.5 -58v-215l51 -63h-207l58 63v345l-63 64h161v-42 q30 51 99 51q92 0 128 -53.5t36 -161.5v-203zM310 373l-4 -1q-15 27 -50 27q-19 0 -31 -11.5t-16.5 -34t-5.5 -37t-1 -38.5v-219l81 -98h-244l-14 15h225l-63 76v226q0 27 1.5 43.5t7 41.5t20 38t38.5 13q44 0 56 -41z" />
<glyph unicode="o" horiz-adv-x="468" d="M403 233q0 -106 -51.5 -173.5t-148.5 -67.5q-98 0 -150.5 67.5t-52.5 173.5q0 111 52 179.5t149 68.5t149.5 -68.5t52.5 -179.5zM439 233q0 -57 -13 -106t-39 -88.5t-70 -62.5t-102 -23q-49 0 -92 22.5t-63 54.5l1 4q25 -28 67 -47t87 -19q104 0 156.5 75t52.5 190 q0 48 -17 98t-40 73l3 2q28 -19 48.5 -71t20.5 -102zM286 234q0 212 -84 212q-85 0 -85 -212q0 -54 7.5 -98.5t27.5 -75.5t50 -31q84 0 84 205zM263 371l-4 -2q-7 17 -20.5 27.5t-28.5 10.5q-54 0 -54 -173q0 -19 1.5 -44t6.5 -61t16 -60t27 -25v-5q-22 0 -37 24t-20.5 61 t-7.5 62t-2 48q0 187 70 187q40 0 53 -50z" />
<glyph unicode="p" horiz-adv-x="527" d="M462 239q0 -112 -52.5 -180.5t-149.5 -68.5q-61 0 -106 28v-169l59 -64h-213l58 64v559l-58 64h159v-39q34 48 100 48q97 0 150 -68t53 -174zM498 233q0 -77 -22 -138t-74.5 -101.5t-128.5 -40.5q-32 0 -69 13v-127l86 -95h-264l-15 14h243l-65 75v153q45 -18 84 -18 q104 0 157 75t53 190q0 48 -17 98t-41 73l3 2q29 -19 49.5 -71t20.5 -102zM345 242q0 200 -85 200q-89 0 -89 -200q0 -216 89 -216q85 0 85 216zM322 366l-4 -2q-16 38 -49 38q-19 0 -32.5 -20.5t-18.5 -52.5t-6.5 -53.5t-1.5 -41.5q0 -52 13 -122.5t42 -72.5v-4 q-22 0 -37 25t-22 61.5t-9.5 64t-2.5 48.5q0 182 75 182q40 0 53 -50z" />
<glyph unicode="q" horiz-adv-x="543" d="M534 -254h-250l-14 15h230l-72 79v557l50 57l10 -11l-46 -52v-545zM462 472l-58 -64v-559l58 -64h-213l58 64v125q-49 -23 -100 -23q-48 0 -86.5 20t-54.5 56l3 3q44 -64 138 -64q53 0 100 24v27q-44 -27 -106 -27q-97 0 -149 68.5t-52 180.5q0 106 52.5 173t150.5 67 q68 0 99 -46v39h160zM291 242q0 86 -21 143t-68 57q-31 0 -51 -31.5t-27 -74t-7 -94.5q0 -216 86 -216q88 0 88 216zM265 369l-4 -2q-7 17 -20.5 27t-28.5 10q-56 0 -56 -170q0 -28 3 -65.5t15.5 -83t33.5 -46.5v-5q-22 0 -36.5 25t-21 62t-8.5 64t-2 49q0 185 72 185 q40 0 53 -50z" />
<glyph unicode="r" horiz-adv-x="416" d="M397 369q-48 -44 -76 -81l-14 10q40 51 87 88zM389 411q-21 -16 -52.5 -48t-44.5 -52q0 104 -63 104q-24 0 -40 -11t-23 -33t-9.5 -44.5t-2.5 -55.5v-208l58 -63h-212l59 63v345l-59 64h155v-42q30 52 99 52q54 0 85.5 -16.5t49.5 -54.5zM291 -39h-261l-15 15h238l-75 78 v217q0 121 56 121q37 0 44 -34l-3 -2q-13 21 -38 21q-44 0 -44 -106v-210z" />
<glyph unicode="s" horiz-adv-x="441" d="M386 355q-8 -4 -60 -38l-13 9q11 9 37.5 25.5t32.5 21.5zM279 384l-4 -2q-23 25 -69 25q-24 0 -35 -10t-11 -25q0 -29 42 -62l-3 -5q-19 11 -29 17.5t-18.5 19.5t-8.5 30q0 19 14.5 34t48.5 15q50 0 73 -37zM376 127q0 -74 -55 -105.5t-139 -31.5q-132 0 -182 77l76 65 q3 -42 32.5 -74.5t72.5 -32.5q42 0 59.5 18.5t17.5 44.5q0 33 -26.5 55.5t-80.5 43.5q-81 33 -116 67.5t-35 86.5q0 71 55.5 104.5t134.5 33.5q68 0 115 -26t66 -61l-75 -48q-4 38 -29 69t-71 31q-41 0 -59.5 -20.5t-18.5 -48.5q0 -11 2 -20.5t9 -17.5t11 -13t17.5 -12 t17.5 -9t21.5 -9t21.5 -9q5 -2 21.5 -9t26 -11.5t26 -13t26.5 -16t22 -19.5t19 -24.5t12 -29t5 -35.5zM249 92h-5q0 16 -30 29t-68 23t-75.5 36t-49.5 64v4q22 -33 63.5 -56.5t76.5 -33.5t61.5 -26.5t26.5 -39.5zM411 120q0 -45 -20.5 -79t-53.5 -52.5t-68.5 -27.5t-72.5 -9 q-53 0 -100 16t-69 46l2 4q45 -51 167 -51q79 0 140 38.5t61 114.5q0 27 -8 52.5t-20 36.5h3q16 -9 27.5 -36t11.5 -53zM196 35q-37 0 -65 29t-31 64l19 -3q4 -28 26 -56.5t51 -29.5v-4z" />
<glyph unicode="t" horiz-adv-x="315" d="M272 373h-65v-183q0 -19 1 -30.5t7.5 -22t18.5 -10.5v-2q-42 0 -42 65v198h65v79l15 -10v-84zM264 116q-23 -68 -26 -118q-99 0 -133 51.5t-34 150.5v212h-20q-34 0 -51 -16q0 34 14 53q18 23 57 23v91h97v-91h24v86l15 -10v-76h26v-60h-65v-205q0 -56 15.5 -75.5 t44.5 -19.5q12 0 36 4zM296 104q-22 -75 -26 -145h-37q-52 0 -89.5 22t-46.5 65v1q17 -34 53.5 -53.5t82.5 -19.5h23q4 62 27 138z" />
<glyph unicode="u" horiz-adv-x="554" d="M531 -39h-252q-29 -8 -49 -8q-58 0 -101 20.5t-52 62.5l2 1q18 -32 59.5 -50.5t91.5 -18.5q34 0 68 18v-10h203l-57 86v405l14 -10v-389zM249 41q-70 0 -70 152v274l15 -10v-264q0 -149 55 -149v-3zM468 0h-145v41q-31 -51 -100 -51q-94 0 -129 48t-35 158v212l-59 64 h155v-269q0 -24 0.5 -38t2.5 -37.5t7.5 -38t14.5 -29.5t24 -22t35 -7q28 0 46.5 16t26 45.5t10 55t2.5 60.5v200l-59 64h154v-401z" />
<glyph unicode="v" horiz-adv-x="507" d="M507 446l-53 -59l-114 -327l68 -99h-260l-10 15h243l-57 81l117 338l55 61zM478 472l-59 -64l-116 -340l48 -68h-230l49 68l-112 340l-58 64h205l-47 -64l102 -302l12 37l-86 261l38 54l12 -10l-34 -47l79 -233l82 240l-43 64h158z" />
<glyph unicode="w" horiz-adv-x="737" d="M737 446l-53 -59l-114 -328l68 -98h-234l-7 15h212l-55 80l117 339l55 61zM708 472l-59 -64l-117 -340l49 -68h-212l22 -39h-245l-7 15h227l-43 77l41 117l-12 36l-49 -138l38 -68h-220l49 68l-113 340l-57 64h205l-46 -64l101 -304l13 38l-87 262l39 54l12 -8l-35 -49 l79 -236l43 126l-38 117l-57 64h205l-46 -64l101 -302l13 37l-87 261l39 54l12 -9l-35 -48l79 -236l84 243l-44 64h158zM399 68l-27 80l-33 -92l26 -48z" />
<glyph unicode="x" horiz-adv-x="530" d="M530 -39h-258l-12 15h239l-79 85l-120 187l103 144l64 62l10 -10l-63 -62l-97 -133l115 -179zM455 0h-224l49 72l-43 67l-57 -80l69 -98h-215l-13 15h200l-59 83l67 94l-14 22l-77 -107l49 -68h-181l66 68l113 153l-121 190l-64 61h225l-52 -67l68 -107l15 21l-53 85 l41 53l12 -9l-36 -45l45 -71l55 76l-51 64h181l-65 -64l-114 -157l118 -185z" />
<glyph unicode="y" horiz-adv-x="541" d="M543 445l-55 -60l-181 -361q-6 -12 -19 -39.5t-21 -43.5t-21 -37.5t-26 -38.5q-69 -88 -161 -88q-18 0 -41 5v3q123 0 190 89q15 19 27 40t27.5 54t20.5 43l193 383l57 61zM515 472l-59 -64l-195 -386q-2 -5 -16.5 -36t-24 -48.5t-31.5 -47.5t-44.5 -46.5t-57.5 -30 t-76 -13.5q-6 47 -45 122q31 -6 61 -6q51 0 91.5 32.5t75.5 118.5l-131 341l-61 64h220l-48 -64l83 -217l15 30l-70 183l39 53l12 -9l-35 -46l63 -164l87 170l-45 64h192z" />
<glyph unicode="z" horiz-adv-x="465" d="M417 446l-226 -386q60 0 81 9t49 53q23 -65 69 -122h-390l215 374h-20q-43 0 -57 -7.5t-33 -35.5l-8 -12l-12 9l6 9q23 34 38.5 42.5t65.5 8.5h29l13 25h-42q-56 0 -76.5 -8t-43.5 -46l-6 -10q-23 64 -69 123h385l-240 -412h28l233 401zM445 -6l-25 -33h-391l-14 15h391 l16 21q-47 57 -70 114l23 -10q27 -60 70 -107z" />
<glyph unicode="{" horiz-adv-x="361" d="M300 633q-44 0 -66 -35t-25 -80t-11 -100t-27 -83q17 -26 26 -81t13 -103.5t20.5 -90.5t48.5 -50l-1 -5q-39 8 -58.5 51t-22.5 93t-13 105.5t-31 80.5q22 27 31 84t11.5 105t27.5 85.5t77 37.5v-14zM300 -40q-114 0 -174 47q-36 28 -57 78.5t-26.5 96.5t-16 91t-26.5 61 q18 27 34.5 124.5t35.5 135.5q57 116 230 116v-38q-68 0 -97 -39q-18 -24 -26.5 -70t-10 -88t-13 -82.5t-36.5 -57.5q25 -17 37 -59.5t13.5 -86t11.5 -90t30 -68.5q30 -33 91 -33v-38zM300 -79q-130 0 -185 38t-73 149l5 2q26 -99 79.5 -137t173.5 -38v-14z" />
<glyph unicode="|" horiz-adv-x="336" d="M258 -39h-146l-14 15h145v686l15 -15v-686zM219 0h-136v671h136v-671z" />
<glyph unicode="}" horiz-adv-x="412" d="M191 350l-2 -3q-22 13 -36 46.5t-18.5 59.5t-9.5 70q-7 56 -21.5 83t-49.5 27l-10 14q36 0 52.5 -10.5t27.5 -32.5q10 -21 14 -72t14.5 -102t38.5 -80zM334 334q-19 -19 -28.5 -79.5t-26.5 -128t-53 -103.5q-61 -63 -192 -63v38q77 0 105 53q16 29 22 92.5t16.5 117.5 t39.5 74q-26 17 -37.5 60.5t-13 87.5t-11.5 90.5t-32 68.5q-32 30 -89 30v38q128 0 191 -61q28 -27 45.5 -73.5t23.5 -88.5t16 -87t24 -66zM383 319q-25 -25 -38 -68t-17 -83.5t-22.5 -89.5t-52.5 -84q-70 -72 -190 -72l-14 15q128 0 194 68q31 32 48 79t21.5 87t17 83 t36.5 67q-26 38 -50.5 148.5t-44.5 131.5l3 2q25 -20 39.5 -71t29.5 -114t40 -99z" />
<glyph unicode="~" horiz-adv-x="534" d="M424 624q-34 -17 -70 -17q-42 0 -108.5 31.5t-95.5 31.5q-48 0 -89 -54q4 31 4 69q0 41 -6 69q34 16 69 16q42 0 108.5 -31.5t95.5 -31.5q47 0 89 54q-4 -46 -4 -69q0 -42 7 -68zM471 600q-66 -32 -117 -32q-48 0 -115 31.5t-89 31.5q-7 0 -14 -2t-13 -5.5t-10.5 -7 t-9.5 -9.5t-8 -9.5t-7.5 -9.5t-5.5 -8l-16 5l8 11q12 16 19.5 24.5t23 16.5t33.5 8q24 0 91 -31t113 -31q48 0 100 25q-13 52 -13 75q0 22 4 66l15 -9q-4 -38 -4 -57t15 -83z" />
<glyph unicode="&#xa2;" horiz-adv-x="431" d="M403 423q-30 -14 -65 -46l-13 13q39 39 72 50zM416 209q0 -57 -32.5 -98t-94.5 -54v-61h-78l-14 15h77v83q-10 -3 -24 -3v-63h-63v28q-78 16 -111 76l1 3q37 -51 110 -65v22q-85 11 -128.5 77t-43.5 162q0 101 43.5 167t128.5 78v69h63v-69q16 -2 24 -4v68l15 -10v-61 q73 -23 102 -105q-42 -16 -76 -51q-1 5 -3 17q0 49 -23 83v-374q41 27 47 85q3 22 3 23q1 8 8 16t19 8q26 0 26 -30q0 -113 -103 -143v-26q118 27 118 165v14h5q4 -20 4 -42zM274 131v398q-10 8 -24 13v-418q13 2 24 7zM187 175v303q-25 -42 -25 -146q0 -102 25 -157z M187 133v21q-40 48 -40 178q0 131 40 171v33q-64 -35 -64 -204q0 -165 64 -199z" />
<glyph unicode="&#xa3;" horiz-adv-x="613" d="M540 628q-42 -66 -90 -195l-14 11q53 136 93 200zM547 0h-542l76 68v189h-17l-52 -17l-7 14l57 17h19v25h-23l-58 -19v90l58 -19h23v16q0 82 8 136.5t29 99.5t62 66.5t104 21.5q14 0 27 -2t21.5 -3.5t20.5 -6.5t16 -6.5t17.5 -8.5t15.5 -8q24 -12 56 -12q29 0 59 17 q-55 -92 -96 -200q-1 4 -2 12.5t-2 12.5q-5 29 -8 43t-12 40.5t-19.5 39.5t-29.5 24t-44 11q-24 0 -43 -10t-31 -23.5t-20.5 -38t-12.5 -43.5t-6 -51.5t-2.5 -50t-0.5 -49.5v-27h24v57q0 212 96 212q55 0 76 -47l-1 -2q-24 34 -75 34q-81 0 -81 -197v-57h37l55 19v-90 l-55 19h-76v-245h24v220h48l61 -17v-17q-53 16 -64 20h-30v-205q69 4 128 45t94 117q31 -129 98 -214zM594 -2l-31 -37h-522l-20 15h534l19 23q-75 90 -98 203l21 -14q16 -87 97 -190z" />
<glyph unicode="&#xa5;" horiz-adv-x="680" d="M675 635l-65 -52l-189 -309h7l57 19v-90l-57 19h-47v-14h50l49 -17l-25 -8l-26 10h-48v-36h47l57 19v-90l-57 19h-47v-37l76 -68h-259l76 68v8h-34l-59 -19l-5 14l61 19h37v15h-47l-58 -19v90l58 -19h47v36h-34l-41 -14l-23 8l61 21h37v14h-47l-58 -19v90l58 -19h47v8 l-199 319l-74 70h246l-55 -64l170 -271l15 25l-154 244l44 53l11 -10l-37 -44l144 -231l141 228l-58 70h197l-85 -70l-199 -317v-10h22l196 316l71 58zM543 -39h-303l-15 15h278l-98 83v31h26l53 -17l-4 -14l-51 17h-9v-10z" />
<glyph unicode="&#xa8;" horiz-adv-x="385" d="M344 665q0 -29 -17 -47t-47 -18q-14 0 -28 8t-18 20l1 1q17 -19 44 -19q26 0 41 16.5t15 40.5q0 23 -17 38l1 1q10 -5 17.5 -16.5t7.5 -24.5zM171 674q0 -22 -14 -36.5t-35 -14.5q-22 0 -36 14.5t-14 36.5t14 36t36 14q21 0 35 -14t14 -36zM195 665q0 -29 -17 -47 t-47 -18q-14 0 -28 8t-18 20l1 1q15 -19 43 -19q27 0 42 16.5t15 40.5q0 21 -17 38l1 1q25 -14 25 -41zM321 674q0 -22 -14 -36.5t-35 -14.5q-22 0 -36 14.5t-14 36.5t14 36t36 14q21 0 35 -14t14 -36z" />
<glyph unicode="&#xa9;" horiz-adv-x="737" d="M715 335q0 -156 -103.5 -264t-260.5 -108q-96 0 -174.5 44t-114.5 123l2 2q51 -71 125.5 -113t161.5 -42q149 0 249 104t100 254q0 80 -34.5 146t-93.5 109l3 2q63 -37 101.5 -105.5t38.5 -151.5zM530 416q-33 -14 -65 -39l-12 11q36 32 72 43zM425 464l-2 -2 q-21 25 -60 25q-73 0 -73 -148q0 -21 2.5 -43.5t9 -54t22.5 -51.5t40 -21v-2q-88 0 -88 172q0 161 84 161q45 0 65 -36zM520 265q0 -60 -42 -96t-128 -36q-102 0 -154.5 57.5t-52.5 147.5q0 94 52 152t153 58q129 0 170 -96q-42 -14 -75 -44q-3 6 -3 14q-1 36 -21.5 67.5 t-63.5 31.5q-104 0 -104 -182q0 -179 108 -179q44 0 72 24t33 63q0 2 1 6.5t1.5 8t0.5 6.5q5 23 26 23q27 0 27 -26zM575 476l-3 -3q-37 46 -101 76t-128 30q-101 0 -172 -71.5t-71 -172.5t78 -180t180 -84v-5q-113 0 -193 80t-80 189q0 107 75.5 183t182.5 76q71 0 134 -31 t98 -87zM544 234q-1 -59 -48.5 -97t-135.5 -38q-52 0 -94 19t-62 51l2 2q51 -59 154 -59q89 0 131.5 40t42.5 106v12h5q5 -22 5 -36zM624 335q0 120 -80.5 201.5t-200.5 81.5q-119 0 -200.5 -82t-81.5 -201t81.5 -201t200.5 -82q120 0 200.5 81.5t80.5 201.5zM8 335 q0 142 96 238t238 96t238 -96t96 -238t-96 -238t-238 -96t-238 96t-96 238z" />
<glyph unicode="&#xab;" horiz-adv-x="1658" d="M1321 65v31q-14 2 -80 13v68q-28 1 -63 9q-65 -72 -149 -72q-49 0 -107.5 23.5t-94.5 66.5q-21 -45 -50.5 -76t-63.5 -31q-29 0 -47.5 12.5t-18.5 36.5v25q-21 -8 -31 -8q-28 0 -48.5 18t-20.5 44q0 7 6 31q-30 0 -53 18.5t-23 50.5q0 26 14 52q19 38 82 101 q-45 -6 -74 -6q-52 0 -110 24q-43 -24 -102 -24q-43 0 -73 10q-38 -17 -74 -17q-54 0 -90 32.5t-40 90.5q46 -4 63 -4t64 5q22 3 35 3q46 0 63 1q47 4 82 11q10 3 29 10.5t29 10.5q4 1 66 8q2 0 15.5 2t21.5 3q110 8 158 8q13 0 35 2q10 1 28 1q163 0 333 -84q32 -16 54 -33 q26 -20 50 -29q51 -22 105 -26v56q124 13 245 42v-588q-24 11 -79 37.5t-86 40.5z" />
<glyph unicode="&#xad;" horiz-adv-x="427" d="M400 204l-15 14v175l15 -10v-179zM361 235l-56 48h-230l-58 -48v163l58 -48h230l56 48v-163zM330 244h-240l-46 -40l-12 12l52 42h228z" />
<glyph unicode="&#xae;" horiz-adv-x="737" d="M715 335q0 -157 -107.5 -264.5t-264.5 -107.5q-96 0 -170.5 43.5t-110.5 123.5l2 2q109 -155 279 -155q150 0 253.5 104t103.5 254q0 80 -34.5 146t-93.5 109l3 2q63 -37 101.5 -105.5t38.5 -151.5zM626 335q0 123 -81 203t-202 80q-123 0 -202.5 -80t-79.5 -203 q0 -121 80 -202t202 -81q103 0 182 66v3q-39 -13 -82 -36l-9 4q52 30 125 52q-50 51 -79 91t-60 100q47 16 75 41t28 67q0 52 -41 84l1 1q17 -7 33.5 -32.5t16.5 -52.5q0 -79 -99 -113q45 -88 126 -174q66 81 66 182zM575 476l-3 -3q-38 46 -102 76t-127 30 q-101 0 -172 -71.5t-71 -172.5q0 -47 20.5 -94.5t54.5 -80.5l37 30v104q-31 -3 -47 -6l-6 9q16 3 53 6v14q-26 0 -54 -6l14 41q17 -4 40 -4v137l-37 19q68 51 173 51q160 0 160 -110q0 -72 -109 -105q31 -63 60.5 -106t72.5 -86q-4 -1 -13 -3.5t-13 -4.5q-35 -11 -79 -37 q-20 118 -56 207q-46 -8 -68 -10v-108l55 -45l-18 -19h-131q71 -53 149 -57v-5q-113 0 -193 80t-80 189q0 107 75.5 183t182.5 76q71 0 134 -31t98 -87zM433 445q0 38 -21.5 60t-60.5 22t-73 -19v-157q10 0 15 1v147q28 14 61 14q47 0 64 -26l-1 -2q-17 19 -63 19 q-28 0 -51 -10v-141q130 13 130 92zM367 318q-1 3 -6 13q-33 -6 -83 -10v-131l48 -40h-143l15 -14h136l10 10l-51 42v120q27 2 74 10zM8 335q0 140 97 237t237 97q141 0 237.5 -96t96.5 -238q0 -140 -97 -237t-237 -97q-139 0 -236.5 97t-97.5 237z" />
<glyph unicode="&#xb4;" horiz-adv-x="314" d="M228 726q-22 -17 -49.5 -45t-42.5 -47q-41 8 -64 8q5 14 31 52.5t40 53.5zM247 699q-51 -38 -97 -97q-55 11 -73 11l-4 13q19 0 72 -11q43 56 95 96z" />
<glyph unicode="&#xb8;" horiz-adv-x="342" d="M274 -108q0 -36 -30 -60t-88 -24t-85.5 24t-27.5 60q24 -12 71 -12h9q0 -48 42 -48q46 0 46 52q0 18 -12 32.5t-37 14.5q-10 0 -22 -2t-20 -2q-17 0 -17 14q0 7 3 14l24 52h28l-11 -31q8 3 25 3q46 0 74 -24.5t28 -62.5zM201 -116h-4q-1 7 -12.5 11t-21.5 4q-2 0 -9 -0.5 t-11 -0.5q-37 0 -37 15v2q7 -4 19 -4q7 0 19.5 1.5t15.5 1.5q20 0 30.5 -9.5t10.5 -20.5zM308 -113q0 -53 -38 -84t-104 -31q-33 0 -65 15t-40 38v1q15 -17 45 -28.5t60 -11.5q61 0 94 27.5t33 73.5q0 40 -31 62l2 1q15 -5 29.5 -23.5t14.5 -39.5zM175 -155v-6h-2 q-31 0 -31 41h13q0 -10 5.5 -21t14.5 -14z" />
<glyph unicode="&#xbb;" horiz-adv-x="1658" d="M175 96v-31q-86 -39 -165 -76v586q121 -29 245 -42v-56q54 4 105 26q24 9 50 29q22 17 54 33q170 84 333 84q18 0 28 -1q22 -2 35 -2q48 0 158 -8q8 -1 21.5 -3t15.5 -2q62 -7 66 -8q10 -3 29 -10.5t29 -10.5q35 -7 82 -11q17 -1 63 -1q12 0 35 -3q48 -5 64 -5q17 0 63 4 q-4 -58 -40 -90.5t-90 -32.5q-36 0 -74 17q-30 -10 -73 -10q-59 0 -102 24q-58 -24 -110 -24q-29 0 -74 6q63 -63 82 -101q14 -26 14 -52q0 -32 -23 -50.5t-53 -18.5q6 -24 6 -31q0 -26 -20.5 -44t-48.5 -18q-10 0 -31 8v-25q0 -24 -18.5 -36.5t-47.5 -12.5q-34 0 -63.5 31 t-50.5 76q-36 -43 -94.5 -66.5t-107.5 -23.5q-84 0 -149 72q-35 -8 -63 -9v-68q-66 -11 -80 -13z" />
<glyph unicode="&#xc0;" horiz-adv-x="803" d="M821 -39h-312l-19 15h290l-90 76l-98 250q13 4 32 4q11 0 33.5 -2t25.5 -2q-37 91 -47 126l19 -9q11 -38 50 -133l-81 6l-12 -1l91 -230zM735 0h-270l70 63l-55 143q-37 -29 -85 -94l-14 7q52 69 94 101l-10 25q-47 -28 -108 -115q-40 66 -84 117l-20 -53 q-18 -49 -18 -93q0 -14 6.5 -29t19.5 -31.5t23 -28t27.5 -29l22.5 -22.5h-290l-20 15h276l-19.5 19.5t-24 25t-17 22t-15.5 29.5t-4 29q0 49 29 122l14 36q-13 13 -19 20l-25 -64q-23 -62 -23 -103q0 -23 8 -42t17 -30t28 -31l8 -9h-257q45 30 71 56q29 29 59 87.5t49 113.5 l20 56q-41 23 -75 28q8 15 43 92q25 -18 60 -51l9 25q-38 34 -58 48l6 13q25 -18 58 -47l72 190l-48 60h234l-51 -60l85 -224q14 12 20 16l-77 203l42 50l11 -10l-36 -43l72 -191q7 5 40 27q5 -30 39 -110q-8 2 -21 2q-30 0 -63 -15l97 -253zM440 312l-72 188l-55 -149 q17 -18 74 -90q24 29 53 51zM377 249q-47 62 -81 99l64 173l-13 34l-79 -213q37 -37 93 -113q10 14 16 20zM432 694h-48q-5 0 -40 -5l-9 11q24 6 49 6h30q-26 54 -75 117l19 -5q46 -61 74 -124zM386 720q-32 0 -65 -8q-15 19 -42.5 47t-49.5 45l86 22q13 -15 39 -53.5 t32 -52.5z" />
<glyph unicode="&#xc2;" horiz-adv-x="803" d="M821 -39h-312l-19 15h290l-90 76l-98 250q13 4 32 4q11 0 33.5 -2t25.5 -2q-37 91 -47 126l19 -9q11 -38 50 -133l-81 6l-12 -1l91 -230zM735 0h-270l70 63l-55 143q-37 -29 -85 -94l-14 7q52 69 94 101l-10 25q-47 -28 -108 -115q-40 66 -84 117l-20 -53 q-18 -49 -18 -93q0 -14 6.5 -29t19.5 -31.5t23 -28t27.5 -29l22.5 -22.5h-290l-20 15h276l-19.5 19.5t-24 25t-17 22t-15.5 29.5t-4 29q0 49 29 122l14 36q-13 13 -19 20l-25 -64q-23 -62 -23 -103q0 -23 8 -42t17 -30t28 -31l8 -9h-257q45 30 71 56q29 29 59 87.5t49 113.5 l20 56q-41 23 -75 28q8 15 43 92q25 -18 60 -51l9 25q-38 34 -58 48l6 13q25 -18 58 -47l72 190l-48 60h234l-51 -60l85 -224q14 12 20 16l-77 203l42 50l11 -10l-36 -43l72 -191q7 5 40 27q5 -30 39 -110q-8 2 -21 2q-30 0 -63 -15l97 -253zM440 312l-72 188l-55 -149 q17 -18 74 -90q24 29 53 51zM377 249q-47 62 -81 99l64 173l-13 34l-79 -213q37 -37 93 -113q10 14 16 20zM552 700l-103 -12l-13 10l92 11l-92 98l22 -8zM498 722l-76 -10l-24 35l-42 -66l-83 10l-7 13l85 -10l41 64l-12 18l-39 -64l-76 10l82 85h69z" />
<glyph unicode="&#xc6;" horiz-adv-x="1149" d="M1087 642q-15 -21 -29.5 -44.5t-22.5 -39.5t-20.5 -42t-18.5 -38l-13 10q38 95 95 166zM932 220l-15 14v224l15 -14v-224zM1129 -2l-31 -37h-572l-19 15h582l20 23q-40 50 -60 83t-34 76l20 -8q22 -61 94 -152zM1080 0h-594l73 63v135q-49 -31 -116 -90l-16 5 q76 69 132 102v30q-59 -28 -152 -115q-20 88 -57 149l-49 -64q-71 -93 -71 -144q0 -24 23 -64l4 -7h-257q60 33 92 56q80 58 185 201l42 56q-37 23 -65 28q38 43 77 92q19 -16 41 -51l175 229l-61 60h573q-44 -61 -95 -162q-27 58 -56 84.5t-88 26.5h-134v-233h24v209h110 q35 0 69 -11t47 -37l-1 -2q-33 35 -115 35h-95v-194h99l69 86v-224l-69 86h-138v-284h24v260h114l11 -15h-110v-245h49q87 0 125 21.5t83 102.5q34 -97 98 -175zM351 214q-3 -4 -18 -22t-22.5 -29t-18.5 -28t-16 -32.5t-5 -29.5q0 -16 7 -30q9 -17 47 -82h-296l-14 15h285 q-15 25 -35 60q-9 18 -9 36q0 16 5.5 33t17.5 36t20 30.5t25 32.5t20 25zM559 490l-115 -151q20 -39 36 -83q32 26 79 56v178zM559 555l-161 -213q23 -36 50 -113q19 16 20 17q-24 64 -41 94l132 174v41z" />
<glyph unicode="&#xc7;" horiz-adv-x="596" d="M572 620q-39 -60 -91 -195l-13 11q51 133 93 200zM409 566l-1 -4q-34 40 -97 40q-44 0 -75.5 -26t-47.5 -68.5t-22.5 -84.5t-6.5 -87q0 -89 31 -169.5t78 -109.5l-3 -4q-56 24 -88.5 106t-32.5 177q0 44 7 87.5t23.5 90t52 75t84.5 28.5q32 0 60.5 -14t37.5 -37zM546 658 q-55 -92 -96 -200q-1 4 -2 12.5t-2 12.5q-28 158 -138 158q-55 0 -95 -31.5t-58.5 -82t-26.5 -97.5t-8 -94q0 -77 17.5 -141.5t62 -111t110.5 -46.5q62 0 107 41t57 104q1 6 1.5 19.5t0.5 16.5q2 25 24 25q21 0 21 -30q0 -103 -60 -163t-168 -60q-15 0 -22 1q-3 -12 -6 -17 q15 3 25 3q46 0 74 -24.5t28 -62.5q0 -36 -30.5 -60t-87.5 -24q-58 0 -85.5 24t-27.5 60q24 -12 71 -12h9q0 -48 42 -48q24 0 35 15t11 36q0 19 -12 33t-37 14q-10 0 -23 -1.5t-20 -1.5q-17 0 -17 14q0 5 3 13l3 6q-69 16 -97 57l2 3q41 -37 101 -48q1 3 5 11l6 12 q-120 17 -181.5 111t-61.5 230q0 158 74.5 256t218.5 98q74 0 138 -35q22 -12 56 -12q29 0 59 17zM545 212q3 -21 3 -41q0 -79 -41 -132t-117 -74q14 -10 24.5 -34.5t10.5 -45.5q0 -54 -37.5 -85t-103.5 -31q-34 0 -65.5 15.5t-39.5 39.5q15 -17 45 -28.5t60 -11.5 q61 0 94 27t33 74q0 25 -15 50.5t-40 36.5q89 17 136.5 78t47.5 157v6zM319 -119h-4q-1 7 -12.5 11t-21.5 4h-19q-34 0 -39 13l1 4q7 -4 19 -4q7 0 19.5 1.5t15.5 1.5q20 0 30.5 -9.5t10.5 -21.5zM293 -158v-5h-2q-31 0 -31 41l13 -1q0 -10 5.5 -21t14.5 -14z" />
<glyph unicode="&#xc8;" d="M606 642q-15 -21 -29.5 -44.5t-22.5 -39.5t-20.5 -42t-18.5 -38l-13 10q38 95 95 166zM451 220l-15 14v224l15 -14v-224zM599 0h-578l76 69v227q-14 0 -26.5 -5t-17.5 -8.5t-16.5 -14t-13.5 -11.5l-12 9q38 44 86 45v24q-25 0 -52 -13t-45 -33q0 44 27 70.5t70 27.5v214 l-76 70h557q-44 -61 -95 -162q-27 58 -55.5 84.5t-88.5 26.5h-134v-233h24v209h110q91 0 115 -50q-32 35 -115 35h-95v-194h99l69 86v-224l-69 86h-138v-284h24v260h114l11 -15h-110v-245h49q87 0 125 21.5t83 102.5q34 -97 98 -175zM648 -2l-31 -37h-552l-20 15h563l20 23 q-40 50 -60 83t-34 76l20 -8q22 -61 94 -152zM348 693h-48q-5 0 -40 -5l-9 11q24 6 49 6h30q-26 54 -75 117l19 -5q46 -61 74 -124zM302 719q-32 0 -65 -8q-15 19 -42.5 47t-49.5 45l86 22q13 -15 39 -53.5t32 -52.5z" />
<glyph unicode="&#xc9;" d="M606 642q-15 -21 -29.5 -44.5t-22.5 -39.5t-20.5 -42t-18.5 -38l-13 10q38 95 95 166zM451 220l-15 14v224l15 -14v-224zM599 0h-578l76 69v227q-14 0 -26.5 -5t-17.5 -8.5t-16.5 -14t-13.5 -11.5l-12 9q38 44 86 45v24q-25 0 -52 -13t-45 -33q0 44 27 70.5t70 27.5v214 l-76 70h557q-44 -61 -95 -162q-27 58 -55.5 84.5t-88.5 26.5h-134v-233h24v209h110q91 0 115 -50q-32 35 -115 35h-95v-194h99l69 86v-224l-69 86h-138v-284h24v260h114l11 -15h-110v-245h49q87 0 125 21.5t83 102.5q34 -97 98 -175zM648 -2l-31 -37h-552l-20 15h563l20 23 q-40 50 -60 83t-34 76l20 -8q22 -61 94 -152zM434 813q-22 -17 -49.5 -45t-42.5 -47q-41 8 -64 8q5 14 31 52.5t40 53.5zM453 786q-51 -38 -97 -97q-55 11 -73 11l-4 13q19 0 72 -11q43 56 95 96z" />
<glyph unicode="&#xca;" d="M606 642q-15 -21 -29.5 -44.5t-22.5 -39.5t-20.5 -42t-18.5 -38l-13 10q38 95 95 166zM451 220l-15 14v224l15 -14v-224zM599 0h-578l76 69v227q-14 0 -26.5 -5t-17.5 -8.5t-16.5 -14t-13.5 -11.5l-12 9q38 44 86 45v24q-25 0 -52 -13t-45 -33q0 44 27 70.5t70 27.5v214 l-76 70h557q-44 -61 -95 -162q-27 58 -55.5 84.5t-88.5 26.5h-134v-233h24v209h110q91 0 115 -50q-32 35 -115 35h-95v-194h99l69 86v-224l-69 86h-138v-284h24v260h114l11 -15h-110v-245h49q87 0 125 21.5t83 102.5q34 -97 98 -175zM648 -2l-31 -37h-552l-20 15h563l20 23 q-40 50 -60 83t-34 76l20 -8q22 -61 94 -152zM500 709l-123 -12l-16 10l110 11l-110 97l27 -8zM435 731l-90 -10l-28 35l-50 -66l-99 10l-8 13l101 -10l48 63l-14 18l-46 -63l-90 10l97 84h82z" />
<glyph unicode="&#xcb;" d="M606 642q-15 -21 -29.5 -44.5t-22.5 -39.5t-20.5 -42t-18.5 -38l-13 10q38 95 95 166zM451 220l-15 14v224l15 -14v-224zM599 0h-578l76 69v227q-14 0 -26.5 -5t-17.5 -8.5t-16.5 -14t-13.5 -11.5l-12 9q38 44 86 45v24q-25 0 -52 -13t-45 -33q0 44 27 70.5t70 27.5v214 l-76 70h557q-44 -61 -95 -162q-27 58 -55.5 84.5t-88.5 26.5h-134v-233h24v209h110q91 0 115 -50q-32 35 -115 35h-95v-194h99l69 86v-224l-69 86h-138v-284h24v260h114l11 -15h-110v-245h49q87 0 125 21.5t83 102.5q34 -97 98 -175zM648 -2l-31 -37h-552l-20 15h563l20 23 q-40 50 -60 83t-34 76l20 -8q22 -61 94 -152zM445 753q0 -29 -17 -47t-47 -18q-14 0 -28 8t-18 20l1 1q17 -19 44 -19q26 0 41 16.5t15 40.5q0 23 -17 38l1 1q10 -5 17.5 -16.5t7.5 -24.5zM272 762q0 -22 -14 -36.5t-35 -14.5q-22 0 -36 14.5t-14 36.5t14 36t36 14 q21 0 35 -14t14 -36zM296 753q0 -29 -17 -47t-47 -18q-14 0 -28 8t-18 20l1 1q15 -19 43 -19q27 0 42 16.5t15 40.5q0 21 -17 38l1 1q25 -14 25 -41zM422 762q0 -22 -14 -36.5t-35 -14.5q-22 0 -36 14.5t-14 36.5t14 36t36 14q21 0 35 -14t14 -36z" />
<glyph unicode="&#xce;" horiz-adv-x="349" d="M349 -39h-305l-15 15h280l-92 81v533l68 64l10 -11l-64 -59v-520zM269 0h-259l76 68v533l-76 70h259l-77 -70v-533zM323 699l-112 -12l-15 10l101 11l-101 96l25 -8zM264 721l-83 -10l-25 35l-46 -66l-90 10l-8 13l93 -10l44 62l-13 18l-42 -62l-83 10l89 83h75z" />
<glyph unicode="&#xcf;" horiz-adv-x="349" d="M349 -39h-305l-15 15h280l-92 81v533l68 64l10 -11l-64 -59v-520zM269 0h-259l76 68v533l-76 70h259l-77 -70v-533zM287 752q0 -29 -17 -47t-47 -18q-14 0 -28 8t-18 20l1 1q17 -19 44 -19q26 0 41 16.5t15 40.5q0 23 -17 38l1 1q25 -13 25 -41zM114 761q0 -22 -14 -36.5 t-35 -14.5q-22 0 -36 14.5t-14 36.5t14 36t36 14q21 0 35 -14t14 -36zM138 752q0 -29 -17 -47t-47 -18q-14 0 -28 8t-18 20l1 1q15 -19 43 -19q27 0 42 16.5t15 40.5q0 21 -17 38l1 1q25 -14 25 -41zM264 761q0 -22 -14 -36.5t-35 -14.5q-22 0 -36 14.5t-14 36.5t14 36 t36 14q21 0 35 -14t14 -36z" />
<glyph unicode="&#xd4;" horiz-adv-x="644" d="M615 333q0 -106 -34 -190.5t-109 -138.5t-182 -54q-68 0 -119 27.5t-74 67.5l1 2q77 -82 192 -82q102 0 173.5 51.5t104 132.5t32.5 184q0 97 -36.5 178.5t-88.5 125.5l3 1q65 -42 101 -121.5t36 -183.5zM576 333q0 -151 -74 -247.5t-212 -96.5q-142 0 -216 97.5 t-74 246.5q0 159 74.5 257t212.5 98q74 0 131 -29t90.5 -79.5t50.5 -112.5t17 -134zM455 335q0 46 -7.5 93t-24 96t-51.5 80t-83 31t-83.5 -31t-52.5 -80t-25 -96t-8 -93q0 -119 43.5 -205.5t125.5 -86.5q56 0 94.5 44t55 108t16.5 140zM395 557l-3 -3q-41 42 -95 42 q-40 0 -69 -29t-43 -74t-20 -84.5t-6 -73.5q0 -96 30.5 -177t77.5 -100l-1 -4q-58 18 -89.5 98.5t-31.5 182.5q0 38 6.5 80t22 88.5t47.5 76.5t76 30q63 0 98 -53zM481 722l-123 -12l-16 10l110 11l-110 97l27 -8zM416 744l-90 -10l-28 35l-50 -66l-99 10l-8 13l101 -10 l48 63l-14 18l-46 -63l-90 10l97 84h82z" />
<glyph unicode="&#xd9;" horiz-adv-x="638" d="M618 643l-64 -59v-369v-14.5t2 -10.5t2 -7.5t4.5 -6.5t5.5 -5t8.5 -5.5t9.5 -6.5q-20 -111 -87 -160.5t-182 -49.5q-171 0 -221 95l1 4q60 -84 220 -84q217 0 252 189q-11 8 -15 11.5t-8 10.5t-5 15.5t-1 24.5v375l68 64zM591 671l-76 -70v-386q0 -32 5 -45t23 -27 q-31 -155 -226 -155q-102 0 -177 38.5t-91 116.5q18 14 23 27.5t5 44.5v386l-77 70h259l-76 -70v-359q0 -28 1 -48t9 -51.5t21.5 -51t42 -35t67.5 -15.5q142 0 142 201v359l-76 70h201zM329 49q-121 2 -121 193v348l68 64l10 -11l-64 -59v-342q0 -181 107 -190v-3zM372 696 h-48q-5 0 -40 -5l-9 11q24 6 49 6h30q-26 54 -75 117l19 -5q46 -61 74 -124zM326 722q-32 0 -65 -8q-15 19 -42.5 47t-49.5 45l86 22q13 -15 39 -53.5t32 -52.5z" />
<glyph unicode="&#xdb;" horiz-adv-x="638" d="M618 643l-64 -59v-369v-14.5t2 -10.5t2 -7.5t4.5 -6.5t5.5 -5t8.5 -5.5t9.5 -6.5q-20 -111 -87 -160.5t-182 -49.5q-171 0 -221 95l1 4q60 -84 220 -84q217 0 252 189q-11 8 -15 11.5t-8 10.5t-5 15.5t-1 24.5v375l68 64zM591 671l-76 -70v-386q0 -32 5 -45t23 -27 q-31 -155 -226 -155q-102 0 -177 38.5t-91 116.5q18 14 23 27.5t5 44.5v386l-77 70h259l-76 -70v-359q0 -28 1 -48t9 -51.5t21.5 -51t42 -35t67.5 -15.5q142 0 142 201v359l-76 70h201zM329 49q-121 2 -121 193v348l68 64l10 -11l-64 -59v-342q0 -181 107 -190v-3zM498 709 l-123 -12l-16 10l110 11l-110 97l27 -8zM433 731l-90 -10l-28 35l-50 -66l-99 10l-8 13l101 -10l48 63l-14 18l-46 -63l-90 10l97 84h82z" />
<glyph unicode="&#xdc;" horiz-adv-x="638" d="M618 643l-64 -59v-369v-14.5t2 -10.5t2 -7.5t4.5 -6.5t5.5 -5t8.5 -5.5t9.5 -6.5q-20 -111 -87 -160.5t-182 -49.5q-171 0 -221 95l1 4q60 -84 220 -84q217 0 252 189q-11 8 -15 11.5t-8 10.5t-5 15.5t-1 24.5v375l68 64zM591 671l-76 -70v-386q0 -32 5 -45t23 -27 q-31 -155 -226 -155q-102 0 -177 38.5t-91 116.5q18 14 23 27.5t5 44.5v386l-77 70h259l-76 -70v-359q0 -28 1 -48t9 -51.5t21.5 -51t42 -35t67.5 -15.5q142 0 142 201v359l-76 70h201zM329 49q-121 2 -121 193v348l68 64l10 -11l-64 -59v-342q0 -181 107 -190v-3zM448 753 q0 -29 -17 -47t-47 -18q-14 0 -28 8t-18 20l1 1q17 -19 44 -19q26 0 41 16.5t15 40.5q0 23 -17 38l1 1q10 -5 17.5 -16.5t7.5 -24.5zM275 762q0 -22 -14 -36.5t-35 -14.5q-22 0 -36 14.5t-14 36.5t14 36t36 14q21 0 35 -14t14 -36zM299 753q0 -29 -17 -47t-47 -18 q-14 0 -28 8t-18 20l1 1q15 -19 43 -19q27 0 42 16.5t15 40.5q0 21 -17 38l1 1q25 -14 25 -41zM425 762q0 -22 -14 -36.5t-35 -14.5q-22 0 -36 14.5t-14 36.5t14 36t36 14q21 0 35 -14t14 -36z" />
<glyph unicode="&#xe0;" horiz-adv-x="511" d="M270 387l-3 -3q-21 23 -64 23q-22 0 -34.5 -10t-15 -18.5t-2.5 -16.5v-10l-15 -4v12q1 11 3 18.5t8 19t20 18t35 6.5q48 0 68 -35zM492 -39h-128q-37 0 -58 14q-47 -26 -105 -26q-49 0 -91.5 17.5t-61.5 47.5l1 3q55 -53 152 -53q60 0 106 29q18 -17 57 -17h103l-45 75 v233q0 90 -47 140l3 2q24 -16 41.5 -57t17.5 -85v-227zM437 0h-83q-41 0 -51 29q-19 -20 -56 -30t-65 -10q-96 0 -137.5 43t-41.5 105q0 170 280 174h3.5h2.5v38q0 33 -20.5 64t-68.5 31q-44 0 -66 -26t-22 -69q-40 17 -86 27q15 48 52.5 76.5t116.5 28.5q52 0 89.5 -10.5 t59.5 -27.5t34 -44t16 -53.5t4 -63.5v-219zM289 165v100q-23 0 -49 -5t-58.5 -17t-53.5 -40.5t-21 -68.5q0 -37 21.5 -70t68.5 -33q92 0 92 134zM282 232q-24 0 -52.5 -7t-56 -30.5t-27.5 -58.5q0 -43 18 -68t43 -25v-4q-77 0 -77 97q0 32 17.5 55t44.5 33.5t49 15t41 4.5 v-12zM265 502h-48q-5 0 -40 -5l-9 11q24 6 49 6h30q-26 54 -75 117l19 -5q46 -61 74 -124zM219 528q-32 0 -65 -8q-15 19 -42.5 47t-49.5 45l86 22q13 -15 39 -53.5t32 -52.5z" />
<glyph unicode="&#xe2;" horiz-adv-x="511" d="M270 387l-3 -3q-21 23 -64 23q-22 0 -34.5 -10t-15 -18.5t-2.5 -16.5v-10l-15 -4v12q1 11 3 18.5t8 19t20 18t35 6.5q48 0 68 -35zM492 -39h-128q-37 0 -58 14q-47 -26 -105 -26q-49 0 -91.5 17.5t-61.5 47.5l1 3q55 -53 152 -53q60 0 106 29q18 -17 57 -17h103l-45 75 v233q0 90 -47 140l3 2q24 -16 41.5 -57t17.5 -85v-227zM437 0h-83q-41 0 -51 29q-19 -20 -56 -30t-65 -10q-96 0 -137.5 43t-41.5 105q0 170 280 174h3.5h2.5v38q0 33 -20.5 64t-68.5 31q-44 0 -66 -26t-22 -69q-40 17 -86 27q15 48 52.5 76.5t116.5 28.5q52 0 89.5 -10.5 t59.5 -27.5t34 -44t16 -53.5t4 -63.5v-219zM289 165v100q-23 0 -49 -5t-58.5 -17t-53.5 -40.5t-21 -68.5q0 -37 21.5 -70t68.5 -33q92 0 92 134zM282 232q-24 0 -52.5 -7t-56 -30.5t-27.5 -58.5q0 -43 18 -68t43 -25v-4q-77 0 -77 97q0 32 17.5 55t44.5 33.5t49 15t41 4.5 v-12zM398 513l-123 -12l-16 10l110 11l-110 97l27 -8zM333 535l-90 -10l-28 35l-50 -66l-99 10l-8 13l101 -10l48 63l-14 18l-46 -63l-90 10l97 84h82z" />
<glyph unicode="&#xe6;" horiz-adv-x="731" d="M716 189h-270q0 -16 2 -35t8 -48.5t21.5 -48.5t38.5 -19h2v-3h-5q-27 0 -44.5 16.5t-24.5 47t-9.5 50t-3.5 49.5v6h270v24q0 119 -52 189l3 1q28 -20 46 -69.5t18 -120.5v-39zM270 387l-3 -3q-21 23 -64 23q-52 0 -52 -47v-8l-16 -4v4q0 70 67 70q48 0 68 -35zM682 228 h-276q2 -203 102 -203q44 0 75.5 28.5t36.5 73.5q0 4 0.5 11.5t1.5 10.5q2 25 28 25q12 0 19 -7.5t7 -18.5q0 -68 -46.5 -112t-126.5 -44q-108 0 -160 63q-22 -35 -68.5 -51t-91.5 -16q-96 0 -138 43t-42 105q0 41 15 72t43 49t55.5 29.5t63.5 16t56.5 6t44.5 1.5h8v39 q0 37 -20 66t-73 29q-43 0 -63.5 -27.5t-20.5 -67.5q-44 18 -86 27q14 48 52 76.5t117 28.5q114 0 163 -52q49 52 136 52q83 0 135.5 -59.5t52.5 -193.5zM709 112q0 -68 -54.5 -113.5t-139.5 -45.5q-110 0 -159 53q-63 -57 -158 -57q-57 0 -102 22.5t-65 57.5l2 3 q59 -68 165 -68q41 0 84 15t72 43q25 -26 69 -40t92 -14q85 0 135 49.5t50 125.5v10h5q4 -19 4 -41zM585 284q0 23 -3 47t-11 52.5t-25.5 46.5t-43.5 18q-35 0 -57.5 -28t-29 -61.5t-7.5 -74.5h22q6 141 77 141q15 0 31.5 -10.5t22.5 -24.5l-1 -2q-22 22 -53 22 q-29 0 -44.5 -36.5t-16.5 -89.5h139zM289 165v101q-29 0 -56 -5t-58 -17.5t-49.5 -41t-18.5 -68.5q0 -37 21.5 -70t68.5 -33q92 0 92 134zM282 232q-19 0 -38.5 -3.5t-43.5 -12.5t-39 -30t-15 -50q0 -43 18 -68t43 -25v-4q-77 0 -77 97q0 31 14.5 53.5t37.5 33.5t46 16t46 5 h8v-12z" />
<glyph unicode="&#xe7;" horiz-adv-x="416" d="M388 326q-34 -18 -65 -46l-12 12q37 38 72 51zM282 381l-3 -2q-21 30 -59 30q-68 0 -68 -175q0 -192 69 -199v-3q-83 0 -83 202q0 190 80 190q42 0 64 -43zM378 147q0 -71 -42 -113t-129 -42q-5 0 -8 1q-3 -10 -7 -19q15 3 24 3q46 0 74.5 -24.5t28.5 -62.5 q0 -36 -30.5 -60t-87.5 -24q-58 0 -85.5 24t-27.5 60q24 -12 70 -12h9q0 -48 43 -48q24 0 35 15t11 36q0 19 -12 33t-37 14q-11 0 -24 -2t-19 -2q-17 0 -17 15q0 5 3 13l5 10q-66 20 -94 73l1 2q34 -45 99 -62q6 14 9 20q-84 12 -127 77.5t-43 160.5q0 111 52 179.5 t153 68.5q130 0 171 -114q-41 -16 -75 -52q-3 9 -3 18q-1 43 -21.5 79t-63.5 36q-100 0 -100 -214q0 -55 8 -99t32 -77t63 -33q45 0 76 29t31 72q0 16 1 23q2 25 27 25q27 0 27 -27zM402 112q-2 -104 -93 -141q18 -11 30.5 -36t12.5 -50q0 -54 -38 -85t-103 -31 q-34 0 -65.5 15t-39.5 38v2q15 -17 44.5 -28.5t60.5 -11.5q61 0 93.5 27t32.5 74q0 25 -17 52t-45 38q117 28 117 164v14h5q5 -23 5 -41zM246 -119h-4q-1 7 -12.5 11t-21.5 4h-19q-34 0 -39 13l1 4q7 -4 19 -4q7 0 19.5 1.5t15.5 1.5q20 0 30.5 -9.5t10.5 -21.5zM219 -158 v-5h-2q-30 0 -30 40h13q0 -10 5.5 -21t13.5 -14z" />
<glyph unicode="&#xe8;" horiz-adv-x="458" d="M428 189h-270v-4q0 -17 2.5 -38t9 -47.5t21.5 -44t36 -17.5h2v-3h-5q-81 0 -81 163v6h270v24q0 119 -52 189l3 1q28 -20 46 -69.5t18 -120.5v-39zM394 228h-276q2 -203 102 -203q45 0 78 28.5t38 73.5q1 8 3 22q2 25 27 25q13 0 20 -8t7 -19q0 -67 -49 -111t-129 -44 q-110 0 -162.5 67t-52.5 174q0 110 53.5 179t152.5 69q83 0 135.5 -59.5t52.5 -193.5zM421 112q0 -68 -54.5 -113.5t-139.5 -45.5q-53 0 -99.5 22.5t-66.5 59.5l1 2q23 -31 69 -50t96 -19q85 0 135 49.5t50 125.5v10h5q4 -19 4 -41zM297 284q0 24 -2.5 47t-10.5 52t-26 47 t-44 18q-34 0 -56.5 -28t-29.5 -62t-8 -74h22q6 141 77 141q15 0 31.5 -10.5t22.5 -24.5l-2 -2q-21 22 -52 22q-29 0 -44.5 -36.5t-16.5 -89.5h139zM267 502h-48q-5 0 -40 -5l-9 11q24 6 49 6h30q-26 54 -75 117l19 -5q46 -61 74 -124zM221 528q-32 0 -65 -8 q-15 19 -42.5 47t-49.5 45l86 22q13 -15 39 -53.5t32 -52.5z" />
<glyph unicode="&#xe9;" horiz-adv-x="458" d="M428 189h-270v-4q0 -17 2.5 -38t9 -47.5t21.5 -44t36 -17.5h2v-3h-5q-81 0 -81 163v6h270v24q0 119 -52 189l3 1q28 -20 46 -69.5t18 -120.5v-39zM394 228h-276q2 -203 102 -203q45 0 78 28.5t38 73.5q1 8 3 22q2 25 27 25q13 0 20 -8t7 -19q0 -67 -49 -111t-129 -44 q-110 0 -162.5 67t-52.5 174q0 110 53.5 179t152.5 69q83 0 135.5 -59.5t52.5 -193.5zM421 112q0 -68 -54.5 -113.5t-139.5 -45.5q-53 0 -99.5 22.5t-66.5 59.5l1 2q23 -31 69 -50t96 -19q85 0 135 49.5t50 125.5v10h5q4 -19 4 -41zM297 284q0 24 -2.5 47t-10.5 52t-26 47 t-44 18q-34 0 -56.5 -28t-29.5 -62t-8 -74h22q6 141 77 141q15 0 31.5 -10.5t22.5 -24.5l-2 -2q-21 22 -52 22q-29 0 -44.5 -36.5t-16.5 -89.5h139zM334 620q-22 -17 -49.5 -45t-42.5 -47q-41 8 -64 8q5 14 31 52.5t40 53.5zM353 593q-51 -38 -97 -97q-55 11 -73 11l-4 13 q19 0 72 -11q43 56 95 96z" />
<glyph unicode="&#xea;" horiz-adv-x="458" d="M428 189h-270v-4q0 -17 2.5 -38t9 -47.5t21.5 -44t36 -17.5h2v-3h-5q-81 0 -81 163v6h270v24q0 119 -52 189l3 1q28 -20 46 -69.5t18 -120.5v-39zM394 228h-276q2 -203 102 -203q45 0 78 28.5t38 73.5q1 8 3 22q2 25 27 25q13 0 20 -8t7 -19q0 -67 -49 -111t-129 -44 q-110 0 -162.5 67t-52.5 174q0 110 53.5 179t152.5 69q83 0 135.5 -59.5t52.5 -193.5zM421 112q0 -68 -54.5 -113.5t-139.5 -45.5q-53 0 -99.5 22.5t-66.5 59.5l1 2q23 -31 69 -50t96 -19q85 0 135 49.5t50 125.5v10h5q4 -19 4 -41zM297 284q0 24 -2.5 47t-10.5 52t-26 47 t-44 18q-34 0 -56.5 -28t-29.5 -62t-8 -74h22q6 141 77 141q15 0 31.5 -10.5t22.5 -24.5l-2 -2q-21 22 -52 22q-29 0 -44.5 -36.5t-16.5 -89.5h139zM394 512l-123 -12l-16 10l110 11l-110 97l27 -8zM329 534l-90 -10l-28 35l-50 -66l-99 10l-8 13l101 -10l48 63l-14 18 l-46 -63l-90 10l97 84h82z" />
<glyph unicode="&#xeb;" horiz-adv-x="458" d="M428 189h-270v-4q0 -17 2.5 -38t9 -47.5t21.5 -44t36 -17.5h2v-3h-5q-81 0 -81 163v6h270v24q0 119 -52 189l3 1q28 -20 46 -69.5t18 -120.5v-39zM394 228h-276q2 -203 102 -203q45 0 78 28.5t38 73.5q1 8 3 22q2 25 27 25q13 0 20 -8t7 -19q0 -67 -49 -111t-129 -44 q-110 0 -162.5 67t-52.5 174q0 110 53.5 179t152.5 69q83 0 135.5 -59.5t52.5 -193.5zM421 112q0 -68 -54.5 -113.5t-139.5 -45.5q-53 0 -99.5 22.5t-66.5 59.5l1 2q23 -31 69 -50t96 -19q85 0 135 49.5t50 125.5v10h5q4 -19 4 -41zM297 284q0 24 -2.5 47t-10.5 52t-26 47 t-44 18q-34 0 -56.5 -28t-29.5 -62t-8 -74h22q6 141 77 141q15 0 31.5 -10.5t22.5 -24.5l-2 -2q-21 22 -52 22q-29 0 -44.5 -36.5t-16.5 -89.5h139zM342 556q0 -29 -17 -47t-47 -18q-14 0 -28 8t-18 20l1 1q17 -19 44 -19q26 0 41 16.5t15 40.5q0 23 -17 38l1 1 q25 -13 25 -41zM169 565q0 -22 -14 -36.5t-35 -14.5q-22 0 -36 14.5t-14 36.5t14 36t36 14q21 0 35 -14t14 -36zM193 556q0 -29 -17 -47t-47 -18q-14 0 -28 8t-18 20l1 1q15 -19 43 -19q27 0 42 16.5t15 40.5q0 21 -17 38l1 1q25 -14 25 -41zM319 565q0 -22 -14 -36.5 t-35 -14.5q-22 0 -36 14.5t-14 36.5t14 36t36 14q21 0 35 -14t14 -36z" />
<glyph unicode="&#xee;" horiz-adv-x="294" d="M298 -39h-253l-15 15h234l-71 76v420h15v-413zM227 0h-213l58 63v345l-58 64h155v-409zM284 509l-103 -12l-13 10l92 11l-92 100l22 -8zM230 532l-76 -11l-23 36l-42 -67l-82 10l-7 13l84 -10l40 65l-11 18l-39 -65l-75 11l81 86h69z" />
<glyph unicode="&#xef;" horiz-adv-x="294" d="M305 -39h-253l-15 15h234l-71 76v420h15v-413zM234 0h-213l58 63v345l-58 64h155v-409zM274 553q0 -29 -17 -47t-47 -18q-14 0 -28 8t-18 20l1 1q17 -19 44 -19q26 0 41 16.5t15 40.5q0 23 -17 38l1 1q10 -5 17.5 -16.5t7.5 -24.5zM101 562q0 -22 -14 -36.5t-35 -14.5 q-22 0 -36 14.5t-14 36.5t14 36t36 14q21 0 35 -14t14 -36zM125 553q0 -29 -17 -47t-47 -18q-14 0 -28 8t-18 20l1 1q15 -19 43 -19q27 0 42 16.5t15 40.5q0 21 -17 38l1 1q25 -14 25 -41zM251 562q0 -22 -14 -36.5t-35 -14.5q-22 0 -36 14.5t-14 36.5t14 36t36 14 q21 0 35 -14t14 -36z" />
<glyph unicode="&#xf4;" horiz-adv-x="468" d="M403 233q0 -106 -51.5 -173.5t-148.5 -67.5q-98 0 -150.5 67.5t-52.5 173.5q0 111 52 179.5t149 68.5t149.5 -68.5t52.5 -179.5zM439 233q0 -57 -13 -106t-39 -88.5t-70 -62.5t-102 -23q-49 0 -92 22.5t-63 54.5l1 4q25 -28 67 -47t87 -19q104 0 156.5 75t52.5 190 q0 48 -17 98t-40 73l3 2q28 -19 48.5 -71t20.5 -102zM286 234q0 212 -84 212q-85 0 -85 -212q0 -54 7.5 -98.5t27.5 -75.5t50 -31q84 0 84 205zM263 371l-4 -2q-7 17 -20.5 27.5t-28.5 10.5q-54 0 -54 -173q0 -19 1.5 -44t6.5 -61t16 -60t27 -25v-5q-22 0 -37 24t-20.5 61 t-7.5 62t-2 48q0 187 70 187q40 0 53 -50zM390 512l-123 -12l-16 10l110 11l-110 97l27 -8zM325 534l-90 -10l-28 35l-50 -66l-99 10l-8 13l101 -10l48 63l-14 18l-46 -63l-90 10l97 84h82z" />
<glyph unicode="&#xf9;" horiz-adv-x="550" d="M531 -39h-252q-29 -8 -49 -8q-58 0 -101 20.5t-52 62.5l2 1q18 -32 59.5 -50.5t91.5 -18.5q34 0 68 18v-10h203l-57 86v405l14 -10v-389zM249 41q-70 0 -70 152v274l15 -10v-264q0 -149 55 -149v-3zM468 0h-145v41q-31 -51 -100 -51q-94 0 -129 48t-35 158v212l-59 64 h155v-269q0 -24 0.5 -38t2.5 -37.5t7.5 -38t14.5 -29.5t24 -22t35 -7q28 0 46.5 16t26 45.5t10 55t2.5 60.5v200l-59 64h154v-401zM294 494h-48q-5 0 -40 -5l-9 11q24 6 49 6h30q-26 54 -75 117l19 -5q46 -61 74 -124zM248 520q-32 0 -65 -8q-15 19 -42.5 47t-49.5 45l86 22 q13 -15 39 -53.5t32 -52.5z" />
<glyph unicode="&#xfb;" horiz-adv-x="550" d="M531 -39h-252q-29 -8 -49 -8q-58 0 -101 20.5t-52 62.5l2 1q18 -32 59.5 -50.5t91.5 -18.5q34 0 68 18v-10h203l-57 86v405l14 -10v-389zM249 41q-70 0 -70 152v274l15 -10v-264q0 -149 55 -149v-3zM468 0h-145v41q-31 -51 -100 -51q-94 0 -129 48t-35 158v212l-59 64 h155v-269q0 -24 0.5 -38t2.5 -37.5t7.5 -38t14.5 -29.5t24 -22t35 -7q28 0 46.5 16t26 45.5t10 55t2.5 60.5v200l-59 64h154v-401zM427 513l-123 -12l-16 10l110 11l-110 97l27 -8zM362 535l-90 -10l-28 35l-50 -66l-99 10l-8 13l101 -10l48 63l-14 18l-46 -63l-90 10l97 84 h82z" />
<glyph unicode="&#xfc;" horiz-adv-x="550" d="M531 -39h-252q-29 -8 -49 -8q-58 0 -101 20.5t-52 62.5l2 1q18 -32 59.5 -50.5t91.5 -18.5q34 0 68 18v-10h203l-57 86v405l14 -10v-389zM249 41q-70 0 -70 152v274l15 -10v-264q0 -149 55 -149v-3zM468 0h-145v41q-31 -51 -100 -51q-94 0 -129 48t-35 158v212l-59 64 h155v-269q0 -24 0.5 -38t2.5 -37.5t7.5 -38t14.5 -29.5t24 -22t35 -7q28 0 46.5 16t26 45.5t10 55t2.5 60.5v200l-59 64h154v-401zM384 557q0 -29 -17 -47t-47 -18q-14 0 -28 8t-18 20l1 1q17 -19 44 -19q26 0 41 16.5t15 40.5q0 23 -17 38l1 1q10 -5 17.5 -16.5t7.5 -24.5z M211 566q0 -22 -14 -36.5t-35 -14.5q-22 0 -36 14.5t-14 36.5t14 36t36 14q21 0 35 -14t14 -36zM235 557q0 -29 -17 -47t-47 -18q-14 0 -28 8t-18 20l1 1q15 -19 43 -19q27 0 42 16.5t15 40.5q0 21 -17 38l1 1q25 -14 25 -41zM361 566q0 -22 -14 -36.5t-35 -14.5 q-22 0 -36 14.5t-14 36.5t14 36t36 14q21 0 35 -14t14 -36z" />
<glyph unicode="&#xff;" horiz-adv-x="541" d="M543 445l-55 -60l-181 -361q-6 -12 -19 -39.5t-21 -43.5t-21 -37.5t-26 -38.5q-69 -88 -161 -88q-18 0 -41 5v3q123 0 190 89q15 19 27 40t27.5 54t20.5 43l193 383l57 61zM515 472l-59 -64l-195 -386q-2 -5 -16.5 -36t-24 -48.5t-31.5 -47.5t-44.5 -46.5t-57.5 -30 t-76 -13.5q-6 47 -45 122q31 -6 61 -6q51 0 91.5 32.5t75.5 118.5l-131 341l-61 64h220l-48 -64l83 -217l15 30l-70 183l39 53l12 -9l-35 -46l63 -164l87 170l-45 64h192zM410 555q0 -29 -17 -47t-47 -18q-14 0 -28 8t-18 20l1 1q17 -19 44 -19q26 0 41 16.5t15 40.5 q0 23 -17 38l1 1q10 -5 17.5 -16.5t7.5 -24.5zM237 564q0 -22 -14 -36.5t-35 -14.5q-22 0 -36 14.5t-14 36.5t14 36t36 14q21 0 35 -14t14 -36zM261 555q0 -29 -17 -47t-47 -18q-14 0 -28 8t-18 20l1 1q15 -19 43 -19q27 0 42 16.5t15 40.5q0 21 -17 38l1 1q25 -14 25 -41z M387 564q0 -22 -14 -36.5t-35 -14.5q-22 0 -36 14.5t-14 36.5t14 36t36 14q21 0 35 -14t14 -36z" />
<glyph unicode="&#x152;" horiz-adv-x="1044" d="M982 642q-15 -21 -29.5 -44.5t-22.5 -39.5t-20.5 -42t-18.5 -38l-13 10q38 95 95 166zM827 220l-15 14v224l15 -14v-224zM975 0h-598q-39 -11 -87 -11q-140 0 -215 96.5t-75 247.5q0 159 74.5 257t212.5 98q64 0 106 -17h561q-44 -61 -95 -162q-27 58 -55.5 84.5 t-88.5 26.5h-134v-233h24v209h110q35 0 69 -11t47 -37l-1 -2q-32 35 -115 35h-95v-194h99l69 86v-224l-69 86h-138v-284h24v260h114l11 -15h-110v-245h49q87 0 125 21.5t83 102.5q34 -97 98 -175zM1024 -2l-31 -37h-616q-48 -11 -87 -11q-68 0 -119 27.5t-74 67.5l1 2 q77 -82 192 -82q44 0 85 11h609l20 23q-40 50 -60 83t-34 76l20 -8q22 -61 94 -152zM454 311v24q-54 0 -98 -46q0 44 27 70.5t70 27.5q-4 45 -13.5 85t-28 78.5t-50 61.5t-72.5 23q-48 0 -83.5 -31t-52.5 -80t-25 -96t-8 -93q0 -119 43.5 -205.5t125.5 -86.5q74 0 115.5 73 t48.5 180q-11 -1 -20 -3.5t-17 -7.5t-13 -8.5t-12.5 -11.5t-10.5 -10l-12 9q38 45 86 47zM395 557l-3 -3q-41 42 -95 42q-40 0 -69 -29t-43 -74t-20 -84.5t-6 -73.5q0 -96 30.5 -177t77.5 -100l-1 -4q-58 18 -89.5 98.5t-31.5 182.5q0 38 6.5 80t22 88.5t47.5 76.5t76 30 q63 0 98 -53z" />
<glyph unicode="&#x153;" horiz-adv-x="751" d="M721 189h-269q0 -148 70 -148v-6q-86 0 -86 169h270v24q0 119 -52 189l3 1q28 -20 46 -69.5t18 -120.5v-39zM687 228h-276q2 -203 102 -203q44 0 75.5 28.5t36.5 73.5q0 8 2 22q1 8 7.5 16.5t19.5 8.5q12 0 19.5 -8.5t7.5 -17.5q0 -68 -46.5 -112t-126.5 -44 q-103 0 -160 63q-55 -63 -145 -63q-98 0 -150.5 67.5t-52.5 173.5q0 111 52 179.5t149 68.5q92 0 148 -66q55 66 150 66q83 0 135.5 -59.5t52.5 -193.5zM710 113q0 -68 -52.5 -114t-137.5 -46q-48 0 -93.5 13.5t-68.5 39.5q-58 -53 -143 -53q-49 0 -92 22.5t-63 54.5l1 4 q25 -28 67 -47t87 -19q87 0 141 57q24 -27 69.5 -42t94.5 -15q85 0 132.5 49t47.5 125v11h5q5 -12 5 -40zM590 284q0 24 -3 47.5t-10.5 52t-25.5 46.5t-44 18q-49 0 -71 -49.5t-23 -114.5h22q6 141 77 141q15 0 31.5 -10.5t22.5 -24.5l-2 -2q-21 22 -52 22 q-29 0 -44.5 -36.5t-16.5 -89.5h139zM286 234q0 212 -84 212q-85 0 -85 -212q0 -54 7.5 -98.5t27.5 -75.5t50 -31q84 0 84 205zM263 371l-4 -2q-7 18 -20 28t-28 10q-55 0 -55 -173q0 -19 1.5 -44t6.5 -61t16 -60t27 -25v-5q-22 0 -37 24t-20.5 61t-7.5 62t-2 48 q0 187 70 187q40 0 53 -50z" />
<glyph unicode="&#x178;" horiz-adv-x="680" d="M786 798q-96 -82 -209 -268l-157 -257v-207l118 -105h-298l-15 15h273l-93 83v218l164 269q123 199 208 265zM762 830q-70 -53 -160 -195l-221 -351v-216l76 -68h-259l76 68v214l-199 319l-75 70h247l-55 -64l170 -271l15 24l-154 245l43 51l11 -10l-36 -42l144 -231 l139 223q26 43 26 81q0 41 -36 67q103 24 248 86zM480 749q0 -29 -17 -47t-47 -18q-14 0 -28 8t-18 20l1 1q17 -19 44 -19q26 0 41 16.5t15 40.5q0 23 -17 38l1 1q10 -5 17.5 -16.5t7.5 -24.5zM307 758q0 -22 -14 -36.5t-35 -14.5q-22 0 -36 14.5t-14 36.5t14 36t36 14 q21 0 35 -14t14 -36zM331 749q0 -29 -17 -47t-47 -18q-14 0 -28 8t-18 20l1 1q15 -19 43 -19q27 0 42 16.5t15 40.5q0 21 -17 38l1 1q25 -14 25 -41zM457 758q0 -22 -14 -36.5t-35 -14.5q-22 0 -36 14.5t-14 36.5t14 36t36 14q21 0 35 -14t14 -36z" />
<glyph unicode="&#x2c6;" horiz-adv-x="450" d="M420 633l-123 -12l-16 10l110 11l-110 97l27 -8zM355 655l-90 -10l-28 35l-50 -66l-99 10l-8 13l101 -10l48 63l-14 18l-46 -63l-90 10l97 84h82z" />
<glyph unicode="&#x2da;" horiz-adv-x="328" d="M241 764q0 -31 -22 -52t-53 -21q-32 0 -53.5 21t-21.5 52q0 32 21.5 53t53.5 21t53.5 -21.5t21.5 -52.5zM269 757q0 -45 -26 -70t-68 -25q-50 0 -67 40v3q27 -30 67 -30q36 0 58.5 22t22.5 60q0 14 -8 32t-22 27l2 2q19 -5 30 -25t11 -36zM124 764q0 -17 12.5 -29.5 t29.5 -12.5t29.5 12.5t12.5 29.5t-12.5 29.5t-29.5 12.5t-29.5 -12.5t-12.5 -29.5z" />
<glyph unicode="&#x2dc;" horiz-adv-x="398" d="M364 621q-41 -26 -77 -26q-32 0 -75.5 20.5t-56.5 20.5q-15 0 -31 -18l-13 4q22 26 44 26q15 0 58.5 -20t73.5 -20q33 0 63 19q-7 31 -7 52q0 15 2 43l12 -2q-2 -26 -2 -41q0 -13 9 -58zM332 635q-23 -10 -45 -10q-27 0 -69.5 20t-61.5 20q-31 0 -57 -34q3 21 3 44 q0 25 -5 44q20 10 45 10q27 0 69.5 -20t61.5 -20q31 0 57 35q-3 -22 -3 -45q0 -25 5 -44z" />
<glyph unicode="&#x2000;" horiz-adv-x="426" />
<glyph unicode="&#x2001;" horiz-adv-x="853" />
<glyph unicode="&#x2002;" horiz-adv-x="426" />
<glyph unicode="&#x2003;" horiz-adv-x="853" />
<glyph unicode="&#x2004;" horiz-adv-x="284" />
<glyph unicode="&#x2005;" horiz-adv-x="213" />
<glyph unicode="&#x2006;" horiz-adv-x="142" />
<glyph unicode="&#x2007;" horiz-adv-x="142" />
<glyph unicode="&#x2008;" horiz-adv-x="106" />
<glyph unicode="&#x2009;" horiz-adv-x="170" />
<glyph unicode="&#x200a;" horiz-adv-x="47" />
<glyph unicode="&#x2010;" horiz-adv-x="427" d="M400 204l-15 14v175l15 -10v-179zM361 235l-56 48h-230l-58 -48v163l58 -48h230l56 48v-163zM330 244h-240l-46 -40l-12 12l52 42h228z" />
<glyph unicode="&#x2011;" horiz-adv-x="427" d="M400 204l-15 14v175l15 -10v-179zM361 235l-56 48h-230l-58 -48v163l58 -48h230l56 48v-163zM330 244h-240l-46 -40l-12 12l52 42h228z" />
<glyph unicode="&#x2012;" horiz-adv-x="427" d="M400 204l-15 14v175l15 -10v-179zM361 235l-56 48h-230l-58 -48v163l58 -48h230l56 48v-163zM330 244h-240l-46 -40l-12 12l52 42h228z" />
<glyph unicode="&#x2013;" horiz-adv-x="544" d="M517 204l-20 14v175l20 -10v-179zM466 235l-73 48h-300l-76 -48v163l76 -48h300l73 48v-163zM426 244h-314l-60 -40l-15 12l67 42h298z" />
<glyph unicode="&#x2014;" horiz-adv-x="1044" d="M1017 204l-39 14v175l39 -10v-179zM915 235l-146 48h-601l-151 -48v163l151 -48h601l146 48v-163zM834 244h-626l-121 -40l-31 12l136 42h595z" />
<glyph unicode="&#x2018;" horiz-adv-x="249" d="M208 538l5 -7q-82 -21 -125 -42l-14 10q46 24 114 41l-5 7q-38 51 -38 81q0 46 36 76l11 -10q-2 -2 -8.5 -7.5t-8 -7.5l-6 -8t-5.5 -11t-2.5 -13.5t-1.5 -18.5q0 -27 48 -90zM172 725q-48 -30 -48 -94q0 -46 28 -78q-53 -12 -105 -44q-18 33 -18 71q0 58 41.5 101.5 t99.5 50.5z" />
<glyph unicode="&#x2019;" horiz-adv-x="212" d="M168 733l19 -8q16 -34 16 -74q0 -62 -41 -104.5t-99 -58.5l-19 7q68 19 105.5 60.5t37.5 101.5q0 38 -19 76zM145 732q15 -38 15 -75q0 -107 -138 -148l-2 7q47 32 47 95q0 45 -27 77q54 14 105 44z" />
<glyph unicode="&#x201a;" horiz-adv-x="241" d="M158 117l19 -8q16 -34 16 -74q0 -62 -41 -104.5t-99 -58.5l-19 7q68 19 105.5 60.5t37.5 101.5q0 38 -19 76zM135 116q15 -38 15 -75q0 -107 -138 -148l-2 7q47 32 47 95q0 45 -27 77q54 14 105 44z" />
<glyph unicode="&#x201c;" horiz-adv-x="354" d="M334 543q-74 -23 -104 -43l-14 8q36 26 96 44q-33 57 -33 88q0 48 31 82l8 -10q-24 -34 -24 -72q0 -34 40 -97zM297 735q-40 -32 -40 -95q0 -43 26 -79q-37 -10 -77 -40q-23 34 -23 75q0 53 33.5 96.5t79.5 49.5zM192 519q-72 -22 -103 -43l-15 8q36 24 97 43l-4 7 q-30 54 -30 82q0 46 33 82l7 -10q-25 -32 -25 -72q0 -9 2.5 -19t8 -22t8.5 -18.5t11.5 -21t9.5 -16.5zM156 711q-40 -32 -40 -93q0 -45 25 -80q-47 -14 -86 -44q-16 35 -16 68q0 58 34 104.5t81 51.5z" />
<glyph unicode="&#x201d;" horiz-adv-x="343" d="M146 729l17 -4q10 -31 10 -66q0 -59 -30.5 -107t-83.5 -62l-15 8q52 14 82.5 59.5t30.5 103.5q0 32 -11 68zM121 732q16 -36 16 -75q0 -57 -32.5 -99t-82.5 -49l-1 7q37 30 37 95q0 45 -21 77q42 13 84 44zM292 739l17 -4q10 -31 10 -66q0 -59 -30.5 -107t-83.5 -62 l-15 8q52 14 82.5 59.5t30.5 103.5q0 32 -11 68zM267 742q16 -36 16 -75q0 -57 -32.5 -99t-82.5 -49l-1 7q37 30 37 95q0 45 -21 77q42 13 84 44z" />
<glyph unicode="&#x201e;" horiz-adv-x="343" d="M319 63q0 -75 -27.5 -115.5t-86.5 -64.5l-15 8q60 27 87.5 64t27.5 108q0 23 -13 58l17 -4q10 -33 10 -54zM283 66q0 -71 -29.5 -106t-84.5 -55l-1 7q38 43 38 97q0 35 -22 75q46 14 84 44q15 -30 15 -62zM174 56q0 -75 -27.5 -115.5t-86.5 -64.5l-15 8q60 27 87.5 64 t27.5 108q0 22 -13 59l17 -4q10 -30 10 -55zM137 56q0 -71 -29.5 -106t-84.5 -55l-1 7q38 43 38 97q0 35 -22 75q42 13 84 44q15 -39 15 -62z" />
<glyph unicode="&#x2026;" horiz-adv-x="676" d="M600 62q0 -28 -19 -47.5t-47 -19.5t-47 19.5t-19 47.5t19 47.5t47 19.5t47 -19.5t19 -47.5zM632 51q0 -38 -23 -62.5t-63 -24.5q-19 0 -37.5 10.5t-23.5 26.5l1 2q20 -26 58 -26q36 0 55.5 22.5t19.5 53.5q0 29 -22 51l1 1q12 -6 23 -22t11 -32zM387 62q0 -28 -19 -47.5 t-47 -19.5t-47 19.5t-19 47.5t19 47.5t47 19.5t47 -19.5t19 -47.5zM419 51q0 -38 -23 -62.5t-63 -24.5q-19 0 -37.5 10.5t-23.5 26.5l1 2q20 -26 58 -26q36 0 55.5 22.5t19.5 53.5q0 29 -22 51l2 1q12 -6 22.5 -22t10.5 -32zM175 62q0 -28 -19 -47.5t-47 -19.5t-47 19.5 t-19 47.5t19 47.5t47 19.5t47 -19.5t19 -47.5zM206 51q0 -38 -23 -62.5t-62 -24.5q-19 0 -37.5 10.5t-24.5 26.5l2 2q20 -26 58 -26q35 0 55 22.5t20 53.5q0 29 -22 51l1 1q12 -6 22.5 -22t10.5 -32z" />
<glyph unicode="&#x202f;" horiz-adv-x="170" />
<glyph unicode="&#x205f;" horiz-adv-x="213" />
<glyph unicode="&#x20ac;" horiz-adv-x="679" d="M655 619q-39 -60 -91 -195l-13 11q51 133 93 200zM629 658q-55 -92 -96 -200q-1 4 -2 12.5t-2 12.5q-28 158 -138 158q-43 0 -76.5 -19t-54.5 -52t-33 -69t-18 -78h25q6 38 16.5 70t29 61.5t47.5 46t67 16.5q32 0 60.5 -14t37.5 -37l-1 -4q-34 40 -97 40q-64 0 -99 -50.5 t-47 -128.5h16l55 19v-90l-55 19h-60q-1 -7 -1 -21h57l48 -16l-25 -7l-26 8h-54q0 -20 1 -29h60l55 18v-89l-55 18h-55q6 -41 18.5 -76.5t33.5 -68.5t55 -52t77 -19q62 0 107 41t57 104q1 6 2 18.5t1 14.5q2 28 23 28t21 -30q0 -103 -60 -163t-168 -60q-114 0 -184.5 62 t-95.5 166h-32l-57 -18l-4 14l59 18h31q-2 7 -4 21h-31l-58 -18v89l58 -18h26q-1 9 -1 28v1h-19l-28 -9l-23 8l49 16h21q0 17 1 21h-26l-58 -19v90l58 -19h32q19 122 91 193.5t195 71.5q74 0 138 -35q22 -12 56 -12q29 0 59 17zM634 212q2 -14 2 -31q0 -105 -71 -167.5 t-189 -62.5q-119 0 -164 64l2 3q58 -52 162 -52q119 0 186 67t67 180zM351 57l-3 -4q-40 17 -68.5 65.5t-41.5 113.5h22l57 -18l-4 -14l-56 17q30 -122 94 -160z" />
<glyph unicode="&#x2122;" horiz-adv-x="723" d="M694 336h-130l38 34v226l-96 -260h-18l-87 257h-1v-177q0 -65 36 -80h-99q38 22 38 79v221l-38 35h139l-39 -35l73 -214l84 222l-30 27h130l-38 -35v-266zM320 671q-18 -32 -36 -83q-5 37 -27.5 47.5t-64.5 10.5v-276l38 -34h-129l38 34v276q-28 0 -43.5 -2.5t-30 -16 t-18.5 -39.5q-13 42 -35 83h308z" />
</font>
</defs>
</svg>
